It Lives Inside (2023) 1080p BDRip Latino [Subt. Esp] (Terror.Drama)

Klass

DARK

Uploader
Registro
27 Sep 2015
Mensajes
888
Reacciones (ptje)
11.004

eX02iwi.png

Título Latino : No Lo Abras


SINOPSIS

Sam es una joven india-estadounidense desesperada por encajar en la escuela. Ella prefiere rechazar su cultura y su familia para ser como el resto de sus compañeros. Cuando un espíritu demoníaco mitológico se aferra a su antiguo mejor amiga, deberá aceptar su herencia para derrotarlo.


TRAILER


CAPTURAS


ODd2xFz.png

HSDW0Xi.png



MEDIAINFO


General
Unique ID : 318138793477879626593415860002222857919 (0xEF574D89BDF9A29E8567CBC575AD5EBF)
Complete name : It Lives Inside (2023) CLUB-HD.mkv
Format : Matroska
Format version : Version 4
File size : 6.05 GiB
Duration : 1 h 39 min
Overall bit rate : 8 724 kb/s
Frame rate : 23.976 FPS
Movie name : It Lives Inside (2023) CLUB-HD
Encoded date : 2024-01-27 23:39:52 UTC
Writing application : mkvmerge v79.0 ('Funeral Pyres') 64-bit
Writing library : libebml v1.4.4 + libmatroska v1.7.1 / Lavf59.27.100
Encoder : Klass
Uploader : Klass

Video
ID : 1
Format : AVC
Format/Info : Advanced Video Codec
Format profile : [email protected]
Format settings : CABAC / 5 Ref Frames
Format settings, CABAC : Yes
Format settings, Reference frames : 5 frames
Codec ID : V_MPEG4/ISO/AVC
Duration : 1 h 39 min
Bit rate : 8 000 kb/s
Width : 1 920 pixels
Height : 800 pixels
Display aspect ratio : 2.40:1
Frame rate mode : Constant
Frame rate : 23.976 (24000/1001) FPS
Color space : YUV
Chroma subsampling : 4:2:0
Bit depth : 8 bits
Scan type : Progressive
Bits/(Pixel*Frame) : 0.217
Stream size : 5.34 GiB (88%)
Writing library : x264 core 164 r3100 ed0f7a6
Encoding settings : cabac=1 / ref=5 / deblock=1:-3:-3 / analyse=0x3:0x113 / me=umh / subme=10 / psy=1 / psy_rd=1.00:0.00 / mixed_ref=1 / me_range=32 / chroma_me=1 / trellis=2 / 8x8dct=1 / cqm=0 / deadzone=21,11 / fast_pskip=0 / chroma_qp_offset=-2 / threads=18 / lookahead_threads=1 / sliced_threads=0 / nr=0 / decimate=0 / interlaced=0 / bluray_compat=0 / constrained_intra=0 / bframes=8 / b_pyramid=2 / b_adapt=1 / b_bias=0 / direct=3 / weightb=1 / open_gop=0 / weightp=2 / keyint=250 / keyint_min=24 / scenecut=40 / intra_refresh=0 / rc_lookahead=120 / rc=cbr / mbtree=0 / bitrate=8000 / ratetol=1.0 / qcomp=0.60 / qpmin=0 / qpmax=69 / qpstep=4 / vbv_maxrate=8000 / vbv_bufsize=16000 / nal_hrd=none / filler=0 / ip_ratio=1.40 / pb_ratio=1.30 / aq=3:1.00
Default : Yes
Forced : No
Color range : Limited
Color primaries : BT.709
Transfer characteristics : BT.709
Matrix coefficients : BT.709

Audio #1
ID : 2
Format : E-AC-3
Format/Info : Enhanced AC-3
Commercial name : Dolby Digital Plus
Codec ID : A_EAC3
Duration : 1 h 39 min
Bit rate mode : Constant
Bit rate : 384 kb/s
Channel(s) : 6 channels
Channel layout : L R C LFE Ls Rs
Sampling rate : 48.0 kHz
Frame rate : 31.250 FPS (1536 SPF)
Compression mode : Lossy
Stream size : 272 MiB (4%)
Title : Latino
Language : Spanish
Service kind : Complete Main
Default : Yes
Forced : Yes

Audio #2
ID : 3
Format : AC-3
Format/Info : Audio Coding 3
Commercial name : Dolby Digital
Codec ID : A_AC3
Duration : 1 h 39 min
Bit rate mode : Constant
Bit rate : 640 kb/s
Channel(s) : 6 channels
Channel layout : L R C LFE Ls Rs
Sampling rate : 48.0 kHz
Frame rate : 31.250 FPS (1536 SPF)
Compression mode : Lossy
Stream size : 454 MiB (7%)
Title : Ingles
Language : English
Service kind : Complete Main
Default : No
Forced : No

Text #1
ID : 4
Format : UTF-8
Codec ID : S_TEXT/UTF8
Codec ID/Info : UTF-8 Plain Text
Duration : 1 h 26 min
Bit rate : 0 b/s
Frame rate : 0.002 FPS
Count of elements : 11
Stream size : 386 Bytes (0%)
Title : Forzados
Language : Spanish
Default : Yes
Forced : Yes

Text #2
ID : 5
Format : UTF-8
Codec ID : S_TEXT/UTF8
Codec ID/Info : UTF-8 Plain Text
Duration : 1 h 30 min
Bit rate : 23 b/s
Frame rate : 0.109 FPS
Count of elements : 591
Stream size : 15.8 KiB (0%)
Title : Completos
Language : Spanish
Default : No
Forced : No

CONTRASEÑA

www.club-hd.com


Todos los links son Intercambiables

DESCARGAR


2b50.png
1 LINK MKV VIP
2b50.png


MEGA-BANNER.png

Tenemos TODO el material de Club-HD disponible por Mega, enlaces 100% activos y online hasta la fecha

Llévate tus cuentas Mega PRO III gratis con tu membresía VIP!
Todos los posts vivos con links de Mega.
Todo el material de Club-HD desbloqueado y sin publicidad.

Obtén más información sobre nuestras Membresías VIP


LINKS FREE PÚBLICOS


1Cloudfile.png


Click aquí para descargar desde 1Cloudfile sin limite de descarga
 
Volver