James Bond: A View to a Kill (1985) m-720p Dual Latino-Inglés [Subt. Esp] (Aventura. Acción)

Maestro Revolver

Well-known member
Registro
9 Ago 2012
Mensajes
3.570
Reacciones
59.678
Puntos
113

Reputation:









TÍTULO ORIGINAL: A View to a Kill (James Bond 14)
AÑO: 1985
DURACIÓN: 131 min.
PAÍS: Reino Unido
DIRECTOR: John Glen
GUIÓN: Richard Maibaum & Michael Wilson (Personaje: Ian Fleming)
REPARTO: Roger Moore, Christopher Walken, Tanya Roberts, Grace Jones, Patrick Macnee, Patrick Bauchau, Alison Doody, Desmond Llewelyn, Lois Maxwell
PRODUCTORA: Metro-Goldwyn-Mayer
GÉNERO: Aventuras. Acción | James Bond. Espionaje
: http://www.imdb.com/title/tt0090264/






Bond recibe la misión de desenmascarar a Max Zorin, un misterioso empresario, y aparente espía de la KGB, que amenaza con dominar el mundo por medio de sus revolucionarios microchips. Aliado a poderosas empresas de tecnología punta, su objetivo es destruir la falla de San Andrés, provocando un terremoto de irreversibles consecuencias.
























La pelicula NO tiene ninguna marca... solo colocamos el nombre de esta web en las capturas






Código:
General
Format                                   : Matroska
Format version                           : Version 2
File size                                : 3.05 GiB
Duration                                 : 2h 11mn
Overall bit rate                         : 3 323 Kbps
Movie name                               : www.club-hd.com
Encoded date                             : UTC 2012-12-17 00:13:03
Writing application                      : mkvmerge v5.7.0 ('The Whirlwind') built on Jul  8 2012 20:08:51
Writing library                          : libebml v1.2.3 + libmatroska v1.3.0

Video
ID                                       : 1
Format                                   : AVC
Format/Info                              : Advanced Video Codec
Format profile                           : High@L4.1
Format settings, CABAC                   : Yes
Format settings, ReFrames                : 5 frames
Codec ID                                 : V_MPEG4/ISO/AVC
Duration                                 : 2h 11mn
Bit rate                                 : 2 489 Kbps
Width                                    : 1 280 pixels
Height                                   : 544 pixels
Display aspect ratio                     : 2.35:1
Frame rate mode                          : Constant
Frame rate                               : 23.976 fps
Color space                              : YUV
Chroma subsampling                       : 4:2:0
Bit depth                                : 8 bits
Scan type                                : Progressive
Bits/(Pixel*Frame)                       : 0.149
Stream size                              : 2.22 GiB (73%)
Title                                    : www.club-hd.com
Writing library                          : x264 core 125 r2208 d9d2288
Language                                 : English
Default                                  : Yes
Forced                                   : No
Color primaries                          : BT.709
Transfer characteristics                 : BT.709
Matrix coefficients                      : BT.709

Audio #1
ID                                       : 2
Format                                   : AC-3
Format/Info                              : Audio Coding 3
Mode extension                           : CM (complete main)
Format settings, Endianness              : Big
Codec ID                                 : A_AC3
Duration                                 : 2h 11mn
Bit rate mode                            : Constant
Bit rate                                 : 448 Kbps
Channel(s)                               : 6 channels
Channel positions                        : Front: L C R, Side: L R, LFE
Sampling rate                            : 48.0 KHz
Bit depth                                : 16 bits
Compression mode                         : Lossy
Stream size                              : 421 MiB (13%)
Title                                    : www.club-hd.com  >>  Latino
Language                                 : Spanish
Default                                  : Yes
Forced                                   : No

Audio #2
ID                                       : 3
Format                                   : AC-3
Format/Info                              : Audio Coding 3
Mode extension                           : CM (complete main)
Format settings, Endianness              : Big
Codec ID                                 : A_AC3
Duration                                 : 2h 11mn
Bit rate mode                            : Constant
Bit rate                                 : 384 Kbps
Channel(s)                               : 6 channels
Channel positions                        : Front: L C R, Side: L R, LFE
Sampling rate                            : 48.0 KHz
Bit depth                                : 16 bits
Compression mode                         : Lossy
Stream size                              : 361 MiB (12%)
Title                                    : www.club-hd.com  >>  Inglés
Language                                 : English
Default                                  : No
Forced                                   : No

Text
ID                                       : 4
Format                                   : UTF-8
Codec ID                                 : S_TEXT/UTF8
Codec ID/Info                            : UTF-8 Plain Text
Language                                 : Spanish
Default                                  : No
Forced                                   : No

Menu
00:00:00.000                             : en:00:00:00.000
00:06:15.667                             : en:00:06:15.667
00:09:39.996                             : en:00:09:39.996
00:12:45.640                             : en:00:12:45.640
00:15:23.881                             : en:00:15:23.881
00:18:01.789                             : en:00:18:01.789
00:22:05.574                             : en:00:22:05.574
00:25:28.944                             : en:00:25:28.944
00:29:10.624                             : en:00:29:10.624
00:35:42.932                             : en:00:35:42.932
00:39:13.685                             : en:00:39:13.685
00:40:42.315                             : en:00:40:42.315
00:41:50.883                             : en:00:41:50.883
00:44:01.848                             : en:00:44:01.848
00:47:18.711                             : en:00:47:18.711
00:52:23.057                             : en:00:52:23.057
00:54:15.627                             : en:00:54:15.627
00:55:52.683                             : en:00:55:52.683
00:58:40.350                             : en:00:58:40.350
01:01:58.381                             : en:01:01:58.381
01:06:47.003                             : en:01:06:47.003
01:12:54.787                             : en:01:12:54.787
01:17:13.754                             : en:01:17:13.754
01:21:08.280                             : en:01:21:08.280
01:24:10.212                             : en:01:24:10.212
01:33:21.054                             : en:01:33:21.054
01:39:17.118                             : en:01:39:17.118
01:42:06.245                             : en:01:42:06.245
01:46:55.743                             : en:01:46:55.743
01:53:22.504                             : en:01:53:22.504
01:59:27.660                             : en:01:59:27.660
02:08:39.795                             : en:02:08:39.795










Enlaces de Mega y Fireload solo disponibles para Miembros VIP

Compra tu Membresía VIP y apoya a Club-HD!

ATENCIÓN! Tenemos TODO el material de Club-HD disponible por Mega y Fireload, enlaces 100% activos y online hasta la fecha

Llévate tus cuentas Mega PRO II gratis con tu membresía VIP!
Todos los posts vivos con links de Mega y Fireload.
Todo el material de Club-HD desbloqueado y sin publicidad.

Click Aquí para más información.




Enlaces de Mega y Fireload solo disponibles para Miembros VIP

Compra tu Membresía VIP y apoya a Club-HD!

ATENCIÓN! Tenemos TODO el material de Club-HD disponible por Mega y Fireload, enlaces 100% activos y online hasta la fecha

Llévate tus cuentas Mega PRO II gratis con tu membresía VIP!
Todos los posts vivos con links de Mega y Fireload.
Todo el material de Club-HD desbloqueado y sin publicidad.

Click Aquí para más información.



Enlaces de Mega y Fireload solo disponibles para Miembros VIP

Compra tu Membresía VIP y apoya a Club-HD!

ATENCIÓN! Tenemos TODO el material de Club-HD disponible por Mega y Fireload, enlaces 100% activos y online hasta la fecha

Llévate tus cuentas Mega PRO II gratis con tu membresía VIP!
Todos los posts vivos con links de Mega y Fireload.
Todo el material de Club-HD desbloqueado y sin publicidad.

Click Aquí para más información.



Para ver este contenido oculto, debes dar click en una de las siguientes reacciones : Like Like, Love Love, Haha Haha, Wow Wow, Sad Sad, Angry Angry



Para ver este contenido oculto, debes dar click en una de las siguientes reacciones : Like Like, Love Love, Haha Haha, Wow Wow, Sad Sad, Angry Angry

 
Última edición:

vect79

Member
Registro
9 Sep 2012
Mensajes
242
Reacciones
5
Puntos
18
Edad
42

Reputation:

otra mas para la colección muchas gracias
 

Usuarios Que Están Viendo Este Tema (Total: 1, Miembros: 0, Invitados: 1)

Arriba