• Buenos dias amigos del club. Les queremos avisar que ya recuperamos el acceso a las webs de las Membresías VIP y del Paste. Asi que ya pueden comprar sus membresías y descargar todos los estrenos nuevamente.

James Bond: Casino Royale (2006) m-720p Dual Latino-Inglés [Subt. Esp] (Acción)

Maestro Revolver

Administrador
Registro
9 Ago 2012
Mensajes
3.157
Reacciones (ptje)
55.343


Casino-Royale.jpg




FICHA_TECNICA.png


TÍTULO ORIGINAL: Casino Royale (James Bond 21)
AÑO: 2006
DURACIÓN: 144 min.
PAÍS: Reino Unido
DIRECTOR: Martin Campbell
GUIÓN: Neal Purvis, Robert Wade, Paul Haggis (Personaje: Ian Fleming)
REPARTO: Daniel Craig, Eva Green, Mads Mikkelsen, Jeffrey Wright, Judi Dench, Caterina Murino, Giancarlo Giannini, Simon Abkarian, Isaach De Bankolé, Jesper Christensen, Ivana Milicevic, Sebastien Foucan
PRODUCTORA: Coproducción GB-USA-República Checa; EON Productions / MGM / Columbia Pictures
GÉNERO: Acción | James Bond. Espionaje. Póker
imdb-logo.png
: http://www.imdb.com/title/tt0381061/




SINOPSIS.png


La primera misión del agente británico James Bond (Daniel Craig) como agente 007 lo lleva hasta Le Chiffre (Mads Mikkelsen), banquero de los terroristas de todo el mundo. Para detenerlo y desmantelar la red terrorista, Bond debe derrotarlo en una arriesgada partida de póquer en el Casino Royale. Al principio a Bond le disgusta Vesper Lynd (Eva Green), la hermosa oficial del Tesoro que debe vigilar el dinero del gobierno. Pero, a medida que Bond y Vesper se ven obligados a defenderse juntos de los mortales ataques de Le Chiffre y sus secuaces, nace entre ellos una atracción mutua.




TRAILER.png






CAPTURAS.png


1.jpg


2.jpg


3.jpg


4.jpg


5.jpg


6.jpg


La pelicula NO tiene ninguna marca... solo colocamos el nombre de esta web en las capturas




DATOS_TECNICOS.png


Código:
General
Format                                   : Matroska
Format version                           : Version 2
File size                                : 3.28 GiB
Duration                                 : 2h 24mn
Overall bit rate                         : 3 253 Kbps
Movie name                               : www.club-hd.com
Encoded date                             : UTC 2012-12-29 06:50:44
Writing application                      : mkvmerge v5.7.0 ('The Whirlwind') built on Jul  8 2012 20:08:51
Writing library                          : libebml v1.2.3 + libmatroska v1.3.0

Video
ID                                       : 1
Format                                   : AVC
Format/Info                              : Advanced Video Codec
Format profile                           : [email protected]
Format settings, CABAC                   : Yes
Format settings, ReFrames                : 5 frames
Codec ID                                 : V_MPEG4/ISO/AVC
Duration                                 : 2h 24mn
Bit rate                                 : 2 420 Kbps
Width                                    : 1 280 pixels
Height                                   : 536 pixels
Display aspect ratio                     : 2.40:1
Frame rate mode                          : Constant
Frame rate                               : 23.976 fps
Color space                              : YUV
Chroma subsampling                       : 4:2:0
Bit depth                                : 8 bits
Scan type                                : Progressive
Bits/(Pixel*Frame)                       : 0.147
Stream size                              : 2.38 GiB (72%)
Title                                    : www.club-hd.com
Writing library                          : x264 core 125 r2208 d9d2288
Language                                 : English
Default                                  : Yes
Forced                                   : No
Color primaries                          : BT.709
Transfer characteristics                 : BT.709
Matrix coefficients                      : BT.709

Audio #1
ID                                       : 2
Format                                   : AC-3
Format/Info                              : Audio Coding 3
Mode extension                           : CM (complete main)
Format settings, Endianness              : Big
Codec ID                                 : A_AC3
Duration                                 : 2h 24mn
Bit rate mode                            : Constant
Bit rate                                 : 448 Kbps
Channel(s)                               : 6 channels
Channel positions                        : Front: L C R, Side: L R, LFE
Sampling rate                            : 48.0 KHz
Bit depth                                : 16 bits
Compression mode                         : Lossy
Delay relative to video                  : 12ms
Stream size                              : 463 MiB (14%)
Title                                    : www.club-hd.com  >>  Latino
Language                                 : Spanish
Default                                  : Yes
Forced                                   : No

Audio #2
ID                                       : 3
Format                                   : AC-3
Format/Info                              : Audio Coding 3
Mode extension                           : CM (complete main)
Format settings, Endianness              : Big
Codec ID                                 : A_AC3
Duration                                 : 2h 24mn
Bit rate mode                            : Constant
Bit rate                                 : 384 Kbps
Channel(s)                               : 6 channels
Channel positions                        : Front: L C R, Side: L R, LFE
Sampling rate                            : 48.0 KHz
Bit depth                                : 16 bits
Compression mode                         : Lossy
Stream size                              : 397 MiB (12%)
Title                                    : www.club-hd.com  >>  Inglés
Language                                 : English
Default                                  : No
Forced                                   : No

Text
ID                                       : 4
Format                                   : UTF-8
Codec ID                                 : S_TEXT/UTF8
Codec ID/Info                            : UTF-8 Plain Text
Language                                 : Spanish
Default                                  : No
Forced                                   : No

Menu
00:00:00.000                             : en:00:00:00.000
00:09:37.285                             : en:00:09:37.285
00:19:30.503                             : en:00:19:30.503
00:25:35.325                             : en:00:25:35.325
00:35:18.241                             : en:00:35:18.241
00:39:58.855                             : en:00:39:58.855
00:45:21.761                             : en:00:45:21.761
00:57:50.384                             : en:00:57:50.384
01:07:21.621                             : en:01:07:21.621
01:17:11.377                             : en:01:17:11.377
01:30:05.400                             : en:01:30:05.400
01:38:40.498                             : en:01:38:40.498
01:43:28.953                             : en:01:43:28.953
01:54:02.377                             : en:01:54:02.377
02:05:44.704                             : en:02:05:44.704
02:13:19.033                             : en:02:13:19.033




Descarga.png



MEGA.jpg

Tenemos TODO el material de Club-HD disponible por Mega, enlaces 100% activos y online hasta la fecha

Llévate tus cuentas Mega PRO III gratis con tu membresía VIP!
Todos los posts vivos con links de Mega.
Todo el material de Club-HD desbloqueado y sin publicidad.

Obtén más información sobre nuestras Membresías VIP



UPLOADED.TO_BANNER.png

Para ver este contenido oculto, debes dar click en el botón"Like", o cualquiera de las otras reacciones:

Me Gusta Me Gusta, Me Encanta Me Encanta, Jaja Jaja, Wow Wow, Triste Triste, Molesto Molesto
 
Última edición por un moderador:
Eres el mejor R21...:sprloc::sprloc::sprloc::sprloc::sprloc::sprloc::OHHH::LXR:Muchas Gracias R21...Tb_up3
 
wow! muchas gracias por compartir! ya casi tengo toda la colección. seguiré agregando hasta tenerla completa. muchas muchas gracias!
 
Gigantesco, inmenso, ¡gracias!. Tenía el presentimiento que las ibas a postear hoy. SÚPER!! :LXR:
 
Volver