James Bond: Diamonds are Forever (1971) m-720p Dual Latino-Inglés [Subt. Esp] (Aventura. Acción)

Maestro Revolver

Administrador
Registro
9 Ago 2012
Mensajes
3.157
Reacciones (ptje)
54.885


Diamonds-Are-Forever.jpg




FICHA_TECNICA.png


TÍTULO ORIGINAL: Diamonds are Forever (James Bond 7)
AÑO: 1971
DURACIÓN: 119 min.
PAÍS: Reino Unido
DIRECTOR: Guy Hamilton
GUIÓN: Tom Mankiewicz & Richard Maibaum (Personaje: Ian Fleming)
REPARTO: Sean Connery, Jill St. John, Charles Gray, Lana Wood, Jimmy Dean, Bruce Cabot, Bernard Lee
PRODUCTORA: United Artists
GÉNERO: Aventuras. Acción | James Bond. Espionaje
imdb-logo.png
: http://www.imdb.com/title/tt0066995/



SINOPSIS.png


Tras pasar unas merecidas vacaciones en Francia, el agente secreto James Bond recibe una llamada del Jefe M para realizar una peligrosa misión relacionada con unos diamantes en bruto desaparecidos...




TRAILER.png






CAPTURAS.png


1.jpg


2.jpg


3.jpg


4.jpg


5.jpg


6.jpg


La pelicula NO tiene ninguna marca... solo colocamos el nombre de esta web en las capturas




DATOS_TECNICOS.png


Código:
General
Format                                   : Matroska
Format version                           : Version 2
File size                                : 2.82 GiB
Duration                                 : 2h 0mn
Overall bit rate                         : 3 358 Kbps
Movie name                               : www.club-hd.com
Encoded date                             : UTC 2012-11-25 14:26:37
Writing application                      : mkvmerge v5.7.0 ('The Whirlwind') built on Jul  8 2012 20:08:51
Writing library                          : libebml v1.2.3 + libmatroska v1.3.0

Video
ID                                       : 1
Format                                   : AVC
Format/Info                              : Advanced Video Codec
Format profile                           : [email protected]
Format settings, CABAC                   : Yes
Format settings, ReFrames                : 5 frames
Codec ID                                 : V_MPEG4/ISO/AVC
Duration                                 : 2h 0mn
Bit rate                                 : 2 524 Kbps
Width                                    : 1 280 pixels
Height                                   : 544 pixels
Display aspect ratio                     : 2.35:1
Frame rate mode                          : Constant
Frame rate                               : 23.976 fps
Color space                              : YUV
Chroma subsampling                       : 4:2:0
Bit depth                                : 8 bits
Scan type                                : Progressive
Bits/(Pixel*Frame)                       : 0.151
Stream size                              : 2.06 GiB (73%)
Title                                    : www.club-hd.com
Writing library                          : x264 core 125 r2208 d9d2288
Language                                 : English
Default                                  : Yes
Forced                                   : No
Color primaries                          : BT.709
Transfer characteristics                 : BT.709
Matrix coefficients                      : BT.709

Audio #1
ID                                       : 2
Format                                   : AC-3
Format/Info                              : Audio Coding 3
Mode extension                           : CM (complete main)
Format settings, Endianness              : Big
Codec ID                                 : A_AC3
Duration                                 : 2h 0mn
Bit rate mode                            : Constant
Bit rate                                 : 448 Kbps
Channel(s)                               : 6 channels
Channel positions                        : Front: L C R, Side: L R, LFE
Sampling rate                            : 48.0 KHz
Bit depth                                : 16 bits
Compression mode                         : Lossy
Stream size                              : 385 MiB (13%)
Title                                    : www.club-hd.com  >>  Latino
Language                                 : Spanish
Default                                  : Yes
Forced                                   : No

Audio #2
ID                                       : 3
Format                                   : AC-3
Format/Info                              : Audio Coding 3
Mode extension                           : CM (complete main)
Format settings, Endianness              : Big
Codec ID                                 : A_AC3
Duration                                 : 2h 0mn
Bit rate mode                            : Constant
Bit rate                                 : 384 Kbps
Channel(s)                               : 6 channels
Channel positions                        : Front: L C R, Side: L R, LFE
Sampling rate                            : 48.0 KHz
Bit depth                                : 16 bits
Compression mode                         : Lossy
Stream size                              : 330 MiB (11%)
Title                                    : www.club-hd.com  >>  Inglés
Language                                 : English
Default                                  : No
Forced                                   : No

Text
ID                                       : 4
Format                                   : UTF-8
Codec ID                                 : S_TEXT/UTF8
Codec ID/Info                            : UTF-8 Plain Text
Language                                 : Spanish
Default                                  : No
Forced                                   : No

Menu
00:00:00.000                             : en:00:00:00.000
00:04:56.171                             : en:00:04:56.171
00:07:45.757                             : en:00:07:45.757
00:10:31.464                             : en:00:10:31.464
00:14:43.299                             : en:00:14:43.299
00:17:15.826                             : en:00:17:15.826
00:21:31.457                             : en:00:21:31.457
00:25:37.536                             : en:00:25:37.536
00:29:11.458                             : en:00:29:11.458
00:34:10.882                             : en:00:34:10.882
00:36:51.584                             : en:00:36:51.584
00:39:36.165                             : en:00:39:36.165
00:43:57.593                             : en:00:43:57.593
00:49:59.663                             : en:00:49:59.663
00:51:45.894                             : en:00:51:45.894
00:56:34.057                             : en:00:56:34.057
00:59:17.012                             : en:00:59:17.012
01:03:33.643                             : en:01:03:33.643
01:08:01.286                             : en:01:08:01.286
01:12:56.163                             : en:01:12:56.163
01:18:34.960                             : en:01:18:34.960
01:20:29.575                             : en:01:20:29.575
01:23:11.737                             : en:01:23:11.737
01:30:21.958                             : en:01:30:21.958
01:32:01.641                             : en:01:32:01.641
01:33:06.498                             : en:01:33:06.498
01:36:06.010                             : en:01:36:06.010
01:37:59.373                             : en:01:37:59.373
01:41:39.885                             : en:01:41:39.885
01:47:22.811                             : en:01:47:22.811
01:54:13.972                             : en:01:54:13.972
01:58:34.357                             : en:01:58:34.357




Sin Contraseña | Simple Extracción




Descarga.png

Links Intercambiables



google-drive-vip.png


Tenemos TODO el material de Club-HD disponible por Mega, enlaces 100% activos y online hasta la fecha

Llévate tus cuentas Mega PRO III gratis con tu membresía VIP!
Todos los posts vivos con links de Mega.
Todo el material de Club-HD desbloqueado y sin publicidad.

Obtén más información sobre nuestras Membresías VIP




MEGA.jpg

Tenemos TODO el material de Club-HD disponible por Mega, enlaces 100% activos y online hasta la fecha

Llévate tus cuentas Mega PRO III gratis con tu membresía VIP!
Todos los posts vivos con links de Mega.
Todo el material de Club-HD desbloqueado y sin publicidad.

Obtén más información sobre nuestras Membresías VIP


1FICHIER-VIP.png

Tenemos TODO el material de Club-HD disponible por Mega, enlaces 100% activos y online hasta la fecha

Llévate tus cuentas Mega PRO III gratis con tu membresía VIP!
Todos los posts vivos con links de Mega.
Todo el material de Club-HD desbloqueado y sin publicidad.

Obtén más información sobre nuestras Membresías VIP


UPLOADED.TO_BANNER.png

Para ver este contenido oculto, debes dar click en el botón"Like", o cualquiera de las otras reacciones:

Me Gusta Me Gusta, Me Encanta Me Encanta, Jaja Jaja, Wow Wow, Triste Triste, Molesto Molesto

OPENLOAD.png

Para ver este contenido oculto, debes dar click en el botón"Like", o cualquiera de las otras reacciones:

Me Gusta Me Gusta, Me Encanta Me Encanta, Jaja Jaja, Wow Wow, Triste Triste, Molesto Molesto
 
Última edición por un moderador:
uff peliculaza esta Gracias Revolver te pasas con la saga entera del 007:aplausos::aplausos::aplausos::aplausos:
 
Uff, batería gracias R-21 ya vamos llegando a la reciente Saludos
 
Volver