James Bond: Die Another Day (2002) m-720p Dual Latino-Inglés [Subt. Esp] (Aventura. Acción)

Maestro Revolver

Well-known member
Miembro del Staff
Administrador
Registro
9 Ago 2012
Mensajes
3.569
Reacciones
59.361
Puntos
113

Reputation:









TÍTULO ORIGINAL: Die Another Day (James Bond 20)
AÑO: 2002
DURACIÓN: 123 min.
PAÍS: Reino Unido
DIRECTOR: Lee Tamahori
GUIÓN: Neal Purvis & Robert Wade (Personaje: Ian Fleming)
REPARTO: Pierce Brosnan, Halle Berry, Judi Dench, Toby Stephens, John Cleese, Madonna, Rosamund Pike, Rick Yune, Kenneth Tsang, Will Yun Lee, Emilio Echevarría, Samantha Bond, Michael Madsen, Colin Salmon, Michael Gorevoy, Lawrence Makoare, Simón Andreu
PRODUCTORA: Coproducción Reino Unido-Estados Unidos; Metro-Goldwyn-Mayer
GÉNERO: Acción. Aventuras. Thriller | James Bond. Espionaje
: http://www.imdb.com/title/tt0246460/






Desde Hong Kong a Cuba y a Londres, el agente 007 investiga los planes de Zao, el hijo del pacifista coronel Moon del ejército de Corea del Norte. El MI6 sospecha que los proyectos de Zao pueden poner en peligro la estabilidad mundial, y esas sospechas se confirman cuando 007 descubre que Zao planea, unificar los ejércitos de las dos Coreas, atacar Japón y, después, enfrentarse a los Estados Unidos. Pero Bond es apresado y torturado por Zao. Cuando Bond, apenas liberado, regresa a Londres se descubre que Gustav Graves, un misterioso millonario que tiene “negocios” con Zao, puede ser una gran amenaza para el mundo, pues ha fabricado un satélite que le permite dirigir la luz solar a su antojo.
























La pelicula NO tiene ninguna marca... solo colocamos el nombre de esta web en las capturas






Código:
General
Format                                   : Matroska
Format version                           : Version 2
File size                                : 3.05 GiB
Duration                                 : 2h 12mn
Overall bit rate                         : 3 295 Kbps
Movie name                               : www.club-hd.com
Encoded date                             : UTC 2012-12-25 23:15:13
Writing application                      : mkvmerge v5.7.0 ('The Whirlwind') built on Jul  8 2012 20:08:51
Writing library                          : libebml v1.2.3 + libmatroska v1.3.0

Video
ID                                       : 1
Format                                   : AVC
Format/Info                              : Advanced Video Codec
Format profile                           : High@L4.1
Format settings, CABAC                   : Yes
Format settings, ReFrames                : 5 frames
Codec ID                                 : V_MPEG4/ISO/AVC
Duration                                 : 2h 12mn
Bit rate                                 : 2 462 Kbps
Width                                    : 1 280 pixels
Height                                   : 544 pixels
Display aspect ratio                     : 2.35:1
Frame rate mode                          : Constant
Frame rate                               : 23.976 fps
Color space                              : YUV
Chroma subsampling                       : 4:2:0
Bit depth                                : 8 bits
Scan type                                : Progressive
Bits/(Pixel*Frame)                       : 0.147
Stream size                              : 2.22 GiB (73%)
Title                                    : www.club-hd.com
Writing library                          : x264 core 125 r2208 d9d2288
Language                                 : English
Default                                  : Yes
Forced                                   : No
Color primaries                          : BT.709
Transfer characteristics                 : BT.709
Matrix coefficients                      : BT.709

Audio #1
ID                                       : 2
Format                                   : AC-3
Format/Info                              : Audio Coding 3
Mode extension                           : CM (complete main)
Format settings, Endianness              : Big
Codec ID                                 : A_AC3
Duration                                 : 2h 12mn
Bit rate mode                            : Constant
Bit rate                                 : 448 Kbps
Channel(s)                               : 6 channels
Channel positions                        : Front: L C R, Side: L R, LFE
Sampling rate                            : 48.0 KHz
Bit depth                                : 16 bits
Compression mode                         : Lossy
Stream size                              : 425 MiB (14%)
Title                                    : www.club-hd.com  >>  Latino
Language                                 : Spanish
Default                                  : Yes
Forced                                   : No

Audio #2
ID                                       : 3
Format                                   : AC-3
Format/Info                              : Audio Coding 3
Mode extension                           : CM (complete main)
Format settings, Endianness              : Big
Codec ID                                 : A_AC3
Duration                                 : 2h 12mn
Bit rate mode                            : Constant
Bit rate                                 : 384 Kbps
Channel(s)                               : 6 channels
Channel positions                        : Front: L C R, Side: L R, LFE
Sampling rate                            : 48.0 KHz
Bit depth                                : 16 bits
Compression mode                         : Lossy
Stream size                              : 364 MiB (12%)
Title                                    : www.club-hd.com  >>  Inglés
Language                                 : English
Default                                  : No
Forced                                   : No

Text #1
ID                                       : 4
Format                                   : UTF-8
Codec ID                                 : S_TEXT/UTF8
Codec ID/Info                            : UTF-8 Plain Text
Title                                    : Forzados
Language                                 : Spanish
Default                                  : Yes
Forced                                   : No

Text #2
ID                                       : 5
Format                                   : UTF-8
Codec ID                                 : S_TEXT/UTF8
Codec ID/Info                            : UTF-8 Plain Text
Language                                 : Spanish
Default                                  : No
Forced                                   : No

Menu
00:00:00.000                             : en:00:00:00.000
00:09:28.151                             : en:00:09:28.151
00:13:15.962                             : en:00:13:15.962
00:16:40.833                             : en:00:16:40.833
00:22:19.797                             : en:00:22:19.797
00:27:32.401                             : en:00:27:32.401
00:30:59.608                             : en:00:30:59.608
00:34:35.824                             : en:00:34:35.824
00:39:46.843                             : en:00:39:46.843
00:43:35.821                             : en:00:43:35.821
00:48:40.918                             : en:00:48:40.918
00:50:01.582                             : en:00:50:01.582
00:52:21.889                             : en:00:52:21.889
00:59:20.640                             : en:00:59:20.640
01:00:13.276                             : en:01:00:13.276
01:03:00.235                             : en:01:03:00.235
01:08:23.433                             : en:01:08:23.433
01:11:07.555                             : en:01:11:07.555
01:13:52.219                             : en:01:13:52.219
01:19:23.717                             : en:01:19:23.717
01:21:33.305                             : en:01:21:33.305
01:26:55.710                             : en:01:26:55.710
01:31:25.772                             : en:01:31:25.772
01:35:07.618                             : en:01:35:07.618
01:39:53.571                             : en:01:39:53.571
01:44:56.248                             : en:01:44:56.248
01:49:43.118                             : en:01:49:43.118
01:55:49.150                             : en:01:55:49.150
02:01:52.388                             : en:02:01:52.388
02:05:08.084                             : en:02:05:08.084
02:06:58.694                             : en:02:06:58.694
02:08:26.699                             : en:02:08:26.699










Enlaces de Mega y Fireload solo disponibles para Miembros VIP

Compra tu Membresía VIP y apoya a Club-HD!

ATENCIÓN! Tenemos TODO el material de Club-HD disponible por Mega y Fireload, enlaces 100% activos y online hasta la fecha

Llévate tus cuentas Mega PRO II gratis con tu membresía VIP!
Todos los posts vivos con links de Mega y Fireload.
Todo el material de Club-HD desbloqueado y sin publicidad.

Click Aquí para más información.




Enlaces de Mega y Fireload solo disponibles para Miembros VIP

Compra tu Membresía VIP y apoya a Club-HD!

ATENCIÓN! Tenemos TODO el material de Club-HD disponible por Mega y Fireload, enlaces 100% activos y online hasta la fecha

Llévate tus cuentas Mega PRO II gratis con tu membresía VIP!
Todos los posts vivos con links de Mega y Fireload.
Todo el material de Club-HD desbloqueado y sin publicidad.

Click Aquí para más información.


Enlaces de Mega y Fireload solo disponibles para Miembros VIP

Compra tu Membresía VIP y apoya a Club-HD!

ATENCIÓN! Tenemos TODO el material de Club-HD disponible por Mega y Fireload, enlaces 100% activos y online hasta la fecha

Llévate tus cuentas Mega PRO II gratis con tu membresía VIP!
Todos los posts vivos con links de Mega y Fireload.
Todo el material de Club-HD desbloqueado y sin publicidad.

Click Aquí para más información.


Para ver este contenido oculto, debes dar click en una de las siguientes reacciones : Like Like, Love Love, Haha Haha, Wow Wow, Sad Sad, Angry Angry


Para ver este contenido oculto, debes dar click en una de las siguientes reacciones : Like Like, Love Love, Haha Haha, Wow Wow, Sad Sad, Angry Angry
 
Última edición:

Maestro Revolver

Well-known member
Miembro del Staff
Administrador
Registro
9 Ago 2012
Mensajes
3.569
Reacciones
59.361
Puntos
113

Reputation:

James Bond Regrasará con, Casino Royale (2006) y Quantum of Solace (2008) Pl4yb0y
 

arkkangeldark

Well-known member
Registro
27 Ago 2012
Mensajes
3.445
Reacciones
576
Puntos
113
Edad
34
Ubicación
Torreon Coahuila

Reputation:

excelente revolver, apenas estaba comentando en las demas pelis y ya estabas publicando esta ultima, excelente ya nada mas faltan 2 , gracias por la peli
 

Lug

Well-known member
Registro
24 Oct 2012
Mensajes
1.691
Reacciones
37
Puntos
48
Edad
62

Reputation:

Muchas gracias... Seguimos con 00
 

Ezze

Well-known member
Miembro del Staff
Súper Moderador
Registro
28 Ago 2012
Mensajes
1.663
Reacciones
1.790
Puntos
113
Ubicación
En la Torre de Observación

Reputation:

Otra gran película... Muchas gracias!!! Hay que pedir a los reyes nuevos discos duros!!! Jajaja. Saludos
 

Usuarios Que Están Viendo Este Tema (Total: 1, Miembros: 0, Invitados: 1)

Arriba