James Bond: Dr. No (1962) m-720p Dual Latino-Inglés [Subt. Esp] (Acción. Intriga)

Maestro Revolver

Well-known member
Miembro del Staff
Administrador
Registro
9 Ago 2012
Mensajes
3.567
Reputation
1








TÍTULO ORIGINAL: Dr No
AÑO: 1962
DURACIÓN: 111 min.
PAÍS: Reino Unido
DIRECTOR: Terence Young
GUIÓN: Personaje: Ian Fleming
REPARTO: Sean Connery, Ursula Andress, Jack Lord, Joseph Wiseman, Anthony Dawson, Zena Marshall, John Kitzmiller, Bernard Lee
PRODUCTORA: Metro-Goldwyn-Mayer
GÉNERO: Acción. Intriga | Espionaje. James Bond
http://www.imdb.com/title/tt0055928/






James Bond llega a Jamaica con la misión de investigar el asesinato de un agente especial británico y su secretaria. Pero, al mismo tiempo, descubre la existencia de una siniestra organización en la isla Crab Key. En esta ocasión su enemigo es el Doctor No, que, ayudado por su cómplice, el profesor Dent, se propone ejecutar un siniestro plan: desviar la trayectoria de los cohetes de Cabo Cañaveral.
























La pelicula NO tiene ninguna marca... solo colocamos el nombre de esta web en las capturas






Código:
General
Format                           : Matroska
Format version                   : Version 2
File size                        : 2.49 GiB
Duration                         : 1h 49mn
Overall bit rate                 : 3 249 Kbps
Movie name                       : www.club-hd.com
Encoded date                     : UTC 2012-11-03 23:17:31
Writing application              : mkvmerge v5.7.0 ('The Whirlwind') built on Jul  8 2012 20:08:51
Writing library                  : libebml v1.2.3 + libmatroska v1.3.0

Video
ID                               : 1
Format                           : AVC
Format/Info                      : Advanced Video Codec
Format profile                   : High@L4.1
Format settings, CABAC           : Yes
Format settings, ReFrames        : 5 frames
Codec ID                         : V_MPEG4/ISO/AVC
Duration                         : 1h 49mn
Bit rate                         : 2 415 Kbps
Width                            : 1 204 pixels
Height                           : 720 pixels
Display aspect ratio             : 1.672
Frame rate                       : 23.976 fps
Color space                      : YUV
Chroma subsampling               : 4:2:0
Bit depth                        : 8 bits
Scan type                        : Progressive
Bits/(Pixel*Frame)               : 0.116
Stream size                      : 1.80 GiB (72%)
Title                            : www.club-hd.com
Writing library                  : x264 core 125 r2208 d9d2288
Language                         : English
Default                          : Yes
Forced                           : No
Color primaries                  : BT.709-5, BT.1361, IEC 61966-2-4, SMPTE RP177
Transfer characteristics         : BT.709-5, BT.1361
Matrix coefficients              : BT.709-5, BT.1361, IEC 61966-2-4 709, SMPTE RP177

Audio #1
ID                               : 2
Format                           : AC-3
Format/Info                      : Audio Coding 3
Mode extension                   : CM (complete main)
Codec ID                         : A_AC3
Duration                         : 1h 49mn
Bit rate mode                    : Constant
Bit rate                         : 448 Kbps
Channel(s)                       : 6 channels
Channel positions                : Front: L C R, Side: L R, LFE
Sampling rate                    : 48.0 KHz
Bit depth                        : 16 bits
Compression mode                 : Lossy
Stream size                      : 352 MiB (14%)
Title                            : www.club-hd.com  >>  Latino
Language                         : Spanish
Default                          : Yes
Forced                           : No

Audio #2
ID                               : 3
Format                           : AC-3
Format/Info                      : Audio Coding 3
Mode extension                   : CM (complete main)
Codec ID                         : A_AC3
Duration                         : 1h 49mn
Bit rate mode                    : Constant
Bit rate                         : 384 Kbps
Channel(s)                       : 6 channels
Channel positions                : Front: L C R, Side: L R, LFE
Sampling rate                    : 48.0 KHz
Bit depth                        : 16 bits
Compression mode                 : Lossy
Stream size                      : 302 MiB (12%)
Title                            : www.club-hd.com  >>  Inglés
Language                         : English
Default                          : No
Forced                           : No

Text #1
ID                               : 4
Format                           : UTF-8
Codec ID                         : S_TEXT/UTF8
Codec ID/Info                    : UTF-8 Plain Text
Title                            : Forzados
Language                         : Spanish
Default                          : Yes
Forced                           : No

Text #2
ID                               : 5
Format                           : UTF-8
Codec ID                         : S_TEXT/UTF8
Codec ID/Info                    : UTF-8 Plain Text
Language                         : Spanish
Default                          : No
Forced                           : No

Menu
00:00:00.000                     : en:00:00:00.000
00:02:50.670                     : en:00:02:50.670
00:06:33.685                     : en:00:06:33.685
00:09:41.915                     : en:00:09:41.915
00:16:26.861                     : en:00:16:26.861
00:19:00.848                     : en:00:19:00.848
00:22:06.492                     : en:00:22:06.492
00:24:32.471                     : en:00:24:32.471
00:26:43.602                     : en:00:26:43.602
00:28:28.123                     : en:00:28:28.123
00:31:22.255                     : en:00:31:22.255
00:36:07.582                     : en:00:36:07.582
00:37:39.257                     : en:00:37:39.257
00:41:18.059                     : en:00:41:18.059
00:44:38.217                     : en:00:44:38.217
00:46:44.677                     : en:00:46:44.677
00:48:18.896                     : en:00:48:18.896
00:51:24.248                     : en:00:51:24.248
00:55:28.575                     : en:00:55:28.575
00:58:50.110                     : en:00:58:50.110
01:01:55.921                     : en:01:01:55.921
01:08:08.126                     : en:01:08:08.126
01:12:39.855                     : en:01:12:39.855
01:15:17.930                     : en:01:15:17.930
01:18:04.305                     : en:01:18:04.305
01:20:54.433                     : en:01:20:54.433
01:26:28.600                     : en:01:26:28.600
01:34:00.760                     : en:01:34:00.760
01:39:03.271                     : en:01:39:03.271
01:43:05.429                     : en:01:43:05.429
01:45:19.021                     : en:01:45:19.021
01:47:30.194                     : en:01:47:30.194










Enlaces de Mega y Google Drive solo disponibles para Miembros VIP

Compra tu Membresía VIP y apoya a Club-HD!

ATENCIÓN! Tenemos TODO el material de Club-HD disponible por Mega y Google Drive, enlaces 100% activos y online hasta la fecha

Llévate tus cuentas Mega PRO III gratis con tu membresía VIP!
Todos los posts vivos con links de Mega y Google Drive.
Todo el material de Club-HD desbloqueado y sin publicidad.

Click Aquí para más información.




Enlaces de Mega y Google Drive solo disponibles para Miembros VIP

Compra tu Membresía VIP y apoya a Club-HD!

ATENCIÓN! Tenemos TODO el material de Club-HD disponible por Mega y Google Drive, enlaces 100% activos y online hasta la fecha

Llévate tus cuentas Mega PRO III gratis con tu membresía VIP!
Todos los posts vivos con links de Mega y Google Drive.
Todo el material de Club-HD desbloqueado y sin publicidad.

Click Aquí para más información.



Enlaces de Mega y Google Drive solo disponibles para Miembros VIP

Compra tu Membresía VIP y apoya a Club-HD!

ATENCIÓN! Tenemos TODO el material de Club-HD disponible por Mega y Google Drive, enlaces 100% activos y online hasta la fecha

Llévate tus cuentas Mega PRO III gratis con tu membresía VIP!
Todos los posts vivos con links de Mega y Google Drive.
Todo el material de Club-HD desbloqueado y sin publicidad.

Click Aquí para más información.


Para ver este contenido oculto, debes dar click en una de las siguientes reacciones : Like Like, Love Love, Haha Haha, Wow Wow, Sad Sad, Angry Angry



Para ver este contenido oculto, debes dar click en una de las siguientes reacciones : Like Like, Love Love, Haha Haha, Wow Wow, Sad Sad, Angry Angry

 
Última edición por un moderador:

LEDOPU

New member
Registro
28 Ago 2012
Mensajes
107
Reputation
0
SEAN CONNERYYYYY...

...EL MEJOR DE LOS BOND....

...ESTE ES UN CLAAAAASSSICO HERMANO...

..MUCHAS GRACIASSSSS.....:aplausos:
 

Usuarios Que Están Viendo Este Tema (Total: 1, Miembros: 0, Invitados: 1)

Quién Leyó Este Tema (Total Miembros: 1)

Arriba