James Bond: From Russia With Love (1963) m-720p Dual Latino-Inglés [Subt. Esp] (Aventura. Acción)

Maestro Revolver

Well-known member
Miembro del Staff
Administrador
Registro
9 Ago 2012
Mensajes
3.569
Reacciones
59.341
Puntos
113

Reputation:









TÍTULO ORIGINAL: From Russia With Love (James Bond 2)
AÑO: 1963
DURACIÓN: 118 min.
PAÍS: Reino Unido
DIRECTOR: Terence Young
GUIÓN: Richard Maibaum (Personaje: Ian Fleming)
REPARTO: Sean Connery, Robert Shaw, Daniela Bianchi, Lotte Lenya, Bernard Lee, Lois Maxwell, Pedro Armendariz
PRODUCTORA: Metro-Goldwyn-Mayer
GÉNERO: Aventuras. Acción | James Bond. Espionaje. Trenes
http://www.imdb.com/title/tt0057076/






Una máquina que descifra los más complejos sistemas de comunicación es el objetivo del agente británico James Bond, que esta vez tiene que viajar hasta Estambul para llevar a cabo esta misión.
























La pelicula NO tiene ninguna marca... solo colocamos el nombre de esta web en las capturas






Código:
General
Format                           : Matroska
Format version                   : Version 2
File size                        : 2.71 GiB
Duration                         : 1h 55mn
Overall bit rate                 : 3 362 Kbps
Movie name                       : www.club-hd.com
Encoded date                     : UTC 2012-11-06 23:09:51
Writing application              : mkvmerge v5.7.0 ('The Whirlwind') built on Jul  8 2012 20:08:51
Writing library                  : libebml v1.2.3 + libmatroska v1.3.0

Video
ID                               : 1
Format                           : AVC
Format/Info                      : Advanced Video Codec
Format profile                   : High@L4.1
Format settings, CABAC           : Yes
Format settings, ReFrames        : 5 frames
Codec ID                         : V_MPEG4/ISO/AVC
Duration                         : 1h 55mn
Bit rate                         : 2 527 Kbps
Width                            : 1 204 pixels
Height                           : 720 pixels
Display aspect ratio             : 1.672
Frame rate                       : 23.976 fps
Color space                      : YUV
Chroma subsampling               : 4:2:0
Bit depth                        : 8 bits
Scan type                        : Progressive
Bits/(Pixel*Frame)               : 0.122
Stream size                      : 1.98 GiB (73%)
Title                            : www.club-hd.com
Writing library                  : x264 core 125 r2208 d9d2288
Language                         : English
Default                          : Yes
Forced                           : No
Color primaries                  : BT.709-5, BT.1361, IEC 61966-2-4, SMPTE RP177
Transfer characteristics         : BT.709-5, BT.1361
Matrix coefficients              : BT.709-5, BT.1361, IEC 61966-2-4 709, SMPTE RP177

Audio #1
ID                               : 2
Format                           : AC-3
Format/Info                      : Audio Coding 3
Mode extension                   : CM (complete main)
Codec ID                         : A_AC3
Duration                         : 1h 55mn
Bit rate mode                    : Constant
Bit rate                         : 448 Kbps
Channel(s)                       : 6 channels
Channel positions                : Front: L C R, Side: L R, LFE
Sampling rate                    : 48.0 KHz
Bit depth                        : 16 bits
Compression mode                 : Lossy
Stream size                      : 369 MiB (13%)
Title                            : www.club-hd.com  >>  Latino
Language                         : Spanish
Default                          : Yes
Forced                           : No

Audio #2
ID                               : 3
Format                           : AC-3
Format/Info                      : Audio Coding 3
Mode extension                   : CM (complete main)
Codec ID                         : A_AC3
Duration                         : 1h 55mn
Bit rate mode                    : Constant
Bit rate                         : 384 Kbps
Channel(s)                       : 6 channels
Channel positions                : Front: L C R, Side: L R, LFE
Sampling rate                    : 48.0 KHz
Bit depth                        : 16 bits
Compression mode                 : Lossy
Stream size                      : 316 MiB (11%)
Title                            : www.club-hd.com  >>  Inglés
Language                         : English
Default                          : No
Forced                           : No

Text #1
ID                               : 4
Format                           : UTF-8
Codec ID                         : S_TEXT/UTF8
Codec ID/Info                    : UTF-8 Plain Text
Title                            : Forzados
Language                         : Spanish
Default                          : Yes
Forced                           : No

Text #2
ID                               : 5
Format                           : UTF-8
Codec ID                         : S_TEXT/UTF8
Codec ID/Info                    : UTF-8 Plain Text
Language                         : Spanish
Default                          : No
Forced                           : No

Menu
00:00:00.000                     : en:00:00:00.000
00:03:10.065                     : en:00:03:10.065
00:05:37.003                     : en:00:05:37.003
00:08:04.192                     : en:00:08:04.192
00:11:16.551                     : en:00:11:16.551
00:14:03.009                     : en:00:14:03.009
00:17:53.281                     : en:00:17:53.281
00:19:34.965                     : en:00:19:34.965
00:24:27.549                     : en:00:24:27.549
00:29:04.493                     : en:00:29:04.493
00:31:36.478                     : en:00:31:36.478
00:33:53.490                     : en:00:33:53.490
00:38:21.174                     : en:00:38:21.174
00:48:53.764                     : en:00:48:53.764
00:51:34.091                     : en:00:51:34.091
00:55:35.165                     : en:00:55:35.165
00:59:50.295                     : en:00:59:50.295
01:03:31.933                     : en:01:03:31.933
01:06:43.458                     : en:01:06:43.458
01:09:55.733                     : en:01:09:55.733
01:12:06.697                     : en:01:12:06.697
01:14:26.879                     : en:01:14:26.879
01:16:16.697                     : en:01:16:16.697
01:20:20.649                     : en:01:20:20.649
01:24:27.521                     : en:01:24:27.521
01:26:31.603                     : en:01:26:31.603
01:36:26.698                     : en:01:36:26.698
01:39:11.821                     : en:01:39:11.821
01:44:09.326                     : en:01:44:09.326
01:45:45.339                     : en:01:45:45.339
01:49:12.713                     : en:01:49:12.713
01:53:37.394                     : en:01:53:37.394











Enlaces de Mega y Fireload solo disponibles para Miembros VIP

Compra tu Membresía VIP y apoya a Club-HD!

ATENCIÓN! Tenemos TODO el material de Club-HD disponible por Mega y Fireload, enlaces 100% activos y online hasta la fecha

Llévate tus cuentas Mega PRO II gratis con tu membresía VIP!
Todos los posts vivos con links de Mega y Fireload.
Todo el material de Club-HD desbloqueado y sin publicidad.

Click Aquí para más información.



Enlaces de Mega y Fireload solo disponibles para Miembros VIP

Compra tu Membresía VIP y apoya a Club-HD!

ATENCIÓN! Tenemos TODO el material de Club-HD disponible por Mega y Fireload, enlaces 100% activos y online hasta la fecha

Llévate tus cuentas Mega PRO II gratis con tu membresía VIP!
Todos los posts vivos con links de Mega y Fireload.
Todo el material de Club-HD desbloqueado y sin publicidad.

Click Aquí para más información.



Enlaces de Mega y Fireload solo disponibles para Miembros VIP

Compra tu Membresía VIP y apoya a Club-HD!

ATENCIÓN! Tenemos TODO el material de Club-HD disponible por Mega y Fireload, enlaces 100% activos y online hasta la fecha

Llévate tus cuentas Mega PRO II gratis con tu membresía VIP!
Todos los posts vivos con links de Mega y Fireload.
Todo el material de Club-HD desbloqueado y sin publicidad.

Click Aquí para más información.



Para ver este contenido oculto, debes dar click en una de las siguientes reacciones : Like Like, Love Love, Haha Haha, Wow Wow, Sad Sad, Angry Angry


Para ver este contenido oculto, debes dar click en una de las siguientes reacciones : Like Like, Love Love, Haha Haha, Wow Wow, Sad Sad, Angry Angry
 
Última edición:

eljumachi

Well-known member
Miembro VIP
Registro
27 Ago 2012
Mensajes
2.174
Reacciones
338
Puntos
83

Reputation:

Clásicos me gustan, Gracias R- 21 . Las pondrás todas las películas 007 ? , por cierto esa portada parece tu avatar que excelente saludos.
 

Nosferatu

Well-known member
Súper Moderador
Registro
31 Ago 2012
Mensajes
2.275
Reacciones
1.362
Puntos
113
Edad
44
Ubicación
Welcome to Hell!!

Reputation:

Uyy! la segunda del 007,Para mi Madre, Excelente maestro. :aplausos::aplausos:

GRACIAS MISTER R21!:LXR::aplausos:
 

lefarocu69

New member
Registro
27 Ago 2012
Mensajes
182
Reacciones
5
Puntos
0
Edad
52

Reputation:

bueno esta es la segunda de las 24 peliculas vamos avanzando hasta que complete esta saga super
 

vhrod

Well-known member
Miembro VIP
Registro
27 Ago 2012
Mensajes
1.366
Reacciones
37
Puntos
48

Reputation:

Gracias, espero que se pueda poner toda la saga del 007.
 

WASON

Member
Registro
27 Ago 2012
Mensajes
386
Reacciones
22
Puntos
18

Reputation:

gracias x subir las primeras de james bond
 

Usuarios Que Están Viendo Este Tema (Total: 1, Miembros: 0, Invitados: 1)

Arriba