James Bond: Goldeneye (1995) m-720p Dual Latino-Inglés [Subt. Esp] (Aventura. Acción)

Maestro Revolver

Well-known member
Miembro del Staff
Administrador
Registro
9 Ago 2012
Mensajes
3.569
Reacciones
59.366
Puntos
113

Reputation:









TÍTULO ORIGINAL: Goldeneye (James Bond 17)
AÑO: 1995
DURACIÓN: 130 min.
PAÍS: Reino Unido
DIRECTOR: Martin Campbell
GUIÓN: Michael France & Jeffrey Caine (Personaje: Ian Fleming)
REPARTO: Pierce Brosnan, Famke Janssen, Izabella Scorupco, Sean Bean, Joe Don Baker, Judi Dench, Tcheky Karyo, Alan Cumming, Minnie Driver, Robbie Coltrane, Samantha Bond, Gottfried John, Desmond Llewelyn
PRODUCTORA: MGM / UA
GÉNERO: Aventuras. Acción | James Bond. Espionaje
: http://www.imdb.com/title/tt0113189/






En sus vacaciones, el agente Bond se encuentra con la bella y letal Xenia Onatopp, que intenta hacerse con los planos de un nuevo helicóptero invulnerable a las interferencias. Mientras tanto la programadora del ejército ruso Natalya Siminova es la única superviviente de su equipo a un macabro plan del general Ourumov para hacerse con Goldeneye, un arma espacial ultrasecreta que emite pulsos nucleares que inutilizan cualquier equipo electrónico. Bond formará equipo con Natalya para descubrir a los malhechores tras el robo.
























La pelicula NO tiene ninguna marca... solo colocamos el nombre de esta web en las capturas






Código:
General
Format                                   : Matroska
Format version                           : Version 2
File size                                : 3.04 GiB
Duration                                 : 2h 10mn
Overall bit rate                         : 3 353 Kbps
Movie name                               : www.club-hd.com
Encoded date                             : UTC 2012-12-25 18:35:09
Writing application                      : mkvmerge v5.7.0 ('The Whirlwind') built on Jul  8 2012 20:08:51
Writing library                          : libebml v1.2.3 + libmatroska v1.3.0

Video
ID                                       : 1
Format                                   : AVC
Format/Info                              : Advanced Video Codec
Format profile                           : High@L4.1
Format settings, CABAC                   : Yes
Format settings, ReFrames                : 5 frames
Codec ID                                 : V_MPEG4/ISO/AVC
Duration                                 : 2h 10mn
Bit rate                                 : 2 519 Kbps
Width                                    : 1 280 pixels
Height                                   : 544 pixels
Display aspect ratio                     : 2.35:1
Frame rate mode                          : Constant
Frame rate                               : 23.976 fps
Color space                              : YUV
Chroma subsampling                       : 4:2:0
Bit depth                                : 8 bits
Scan type                                : Progressive
Bits/(Pixel*Frame)                       : 0.151
Stream size                              : 2.23 GiB (73%)
Title                                    : www.club-hd.com
Writing library                          : x264 core 125 r2208 d9d2288
Language                                 : English
Default                                  : Yes
Forced                                   : No
Color primaries                          : BT.709
Transfer characteristics                 : BT.709
Matrix coefficients                      : BT.709

Audio #1
ID                                       : 2
Format                                   : AC-3
Format/Info                              : Audio Coding 3
Mode extension                           : CM (complete main)
Format settings, Endianness              : Big
Codec ID                                 : A_AC3
Duration                                 : 2h 10mn
Bit rate mode                            : Constant
Bit rate                                 : 448 Kbps
Channel(s)                               : 6 channels
Channel positions                        : Front: L C R, Side: L R, LFE
Sampling rate                            : 48.0 KHz
Bit depth                                : 16 bits
Compression mode                         : Lossy
Stream size                              : 417 MiB (13%)
Title                                    : www.club-hd.com  >>  Latino
Language                                 : Spanish
Default                                  : Yes
Forced                                   : No

Audio #2
ID                                       : 3
Format                                   : AC-3
Format/Info                              : Audio Coding 3
Mode extension                           : CM (complete main)
Format settings, Endianness              : Big
Codec ID                                 : A_AC3
Duration                                 : 2h 10mn
Bit rate mode                            : Constant
Bit rate                                 : 384 Kbps
Channel(s)                               : 6 channels
Channel positions                        : Front: L C R, Side: L R, LFE
Sampling rate                            : 48.0 KHz
Bit depth                                : 16 bits
Compression mode                         : Lossy
Stream size                              : 357 MiB (11%)
Title                                    : www.club-hd.com  >>  Inglés
Language                                 : English
Default                                  : No
Forced                                   : No

Text
ID                                       : 4
Format                                   : UTF-8
Codec ID                                 : S_TEXT/UTF8
Codec ID/Info                            : UTF-8 Plain Text
Language                                 : Spanish
Default                                  : No
Forced                                   : No

Menu
00:00:00.000                             : en:00:00:00.000
00:10:29.963                             : en:00:10:29.963
00:13:20.133                             : en:00:13:20.133
00:17:06.317                             : en:00:17:06.317
00:24:23.379                             : en:00:24:23.379
00:27:56.091                             : en:00:27:56.091
00:31:05.864                             : en:00:31:05.864
00:36:24.057                             : en:00:36:24.057
00:38:57.335                             : en:00:38:57.335
00:43:19.430                             : en:00:43:19.430
00:48:11.680                             : en:00:48:11.680
00:50:29.193                             : en:00:50:29.193
00:53:08.102                             : en:00:53:08.102
00:56:08.073                             : en:00:56:08.073
00:57:47.005                             : en:00:57:47.005
01:03:42.027                             : en:01:03:42.027
01:06:16.055                             : en:01:06:16.055
01:11:04.969                             : en:01:11:04.969
01:13:20.271                             : en:01:13:20.271
01:17:49.456                             : en:01:17:49.456
01:19:54.456                             : en:01:19:54.456
01:25:07.936                             : en:01:25:07.936
01:30:50.612                             : en:01:30:50.612
01:34:26.160                             : en:01:34:26.160
01:40:12.298                             : en:01:40:12.298
01:44:34.268                             : en:01:44:34.268
01:47:31.445                             : en:01:47:31.445
01:50:41.343                             : en:01:50:41.343
01:56:01.121                             : en:01:56:01.121
02:00:53.705                             : en:02:00:53.705
02:04:35.009                             : en:02:04:35.009
02:06:33.002                             : en:02:06:33.002











Enlaces de Mega y Fireload solo disponibles para Miembros VIP

Compra tu Membresía VIP y apoya a Club-HD!

ATENCIÓN! Tenemos TODO el material de Club-HD disponible por Mega y Fireload, enlaces 100% activos y online hasta la fecha

Llévate tus cuentas Mega PRO II gratis con tu membresía VIP!
Todos los posts vivos con links de Mega y Fireload.
Todo el material de Club-HD desbloqueado y sin publicidad.

Click Aquí para más información.



Enlaces de Mega y Fireload solo disponibles para Miembros VIP

Compra tu Membresía VIP y apoya a Club-HD!

ATENCIÓN! Tenemos TODO el material de Club-HD disponible por Mega y Fireload, enlaces 100% activos y online hasta la fecha

Llévate tus cuentas Mega PRO II gratis con tu membresía VIP!
Todos los posts vivos con links de Mega y Fireload.
Todo el material de Club-HD desbloqueado y sin publicidad.

Click Aquí para más información.


Enlaces de Mega y Fireload solo disponibles para Miembros VIP

Compra tu Membresía VIP y apoya a Club-HD!

ATENCIÓN! Tenemos TODO el material de Club-HD disponible por Mega y Fireload, enlaces 100% activos y online hasta la fecha

Llévate tus cuentas Mega PRO II gratis con tu membresía VIP!
Todos los posts vivos con links de Mega y Fireload.
Todo el material de Club-HD desbloqueado y sin publicidad.

Click Aquí para más información.


Para ver este contenido oculto, debes dar click en una de las siguientes reacciones : Like Like, Love Love, Haha Haha, Wow Wow, Sad Sad, Angry Angry
 
Última edición:

georgetwp

Well-known member
Registro
27 Ago 2012
Mensajes
1.762
Reacciones
361
Puntos
83
Edad
31

Reputation:

Excelente ya casi acabamos con la coleccion
 

Usuarios Que Están Viendo Este Tema (Total: 1, Miembros: 0, Invitados: 1)

Arriba