James Bond: Goldfinger (1964) m-720p Dual Latino-Inglés [Subt. Esp] (Aventura. Acción)

Maestro Revolver

Well-known member
Miembro del Staff
Administrador
Registro
9 Ago 2012
Mensajes
3.569
Reacciones
59.346
Puntos
113

Reputation:









TÍTULO ORIGINAL: Goldfinger (James Bond 3)
AÑO: 1964
DURACIÓN: 108 min.
PAÍS: Reino Unido
DIRECTOR: Guy Hamilton
GUIÓN: Richard Maibaum & Paul Dehn (Personaje: Ian Fleming)
REPARTO: Sean Connery, Honor Blackman, Gert Fröbe, Shirley Eaton, Tania Mallet, Harold Sakata, Bernard Lee, Lois Maxwell
PRODUCTORA: Metro-Goldwyn-Mayer
GÉNERO: Aventuras. Acción | James Bond. Espionaje
http://www.imdb.com/title/tt0058150/






Un malvado magnate, Auric Goldfinger, quiere hacer estallar una bomba atómica en Fort Knox, donde está toda la reserva federal de oro de los Estados Unidos, para poder así incrementar enormemente el precio del metal dorado.
























La pelicula NO tiene ninguna marca... solo colocamos el nombre de esta web en las capturas






Código:
General
Format                           : Matroska
Format version                   : Version 2
File size                        : 2.59 GiB
Duration                         : 1h 50mn
Overall bit rate                 : 3 372 Kbps
Movie name                       : www.club-hd.com
Encoded date                     : UTC 2012-11-11 03:22:19
Writing application              : mkvmerge v5.7.0 ('The Whirlwind') built on Jul  8 2012 20:08:51
Writing library                  : libebml v1.2.3 + libmatroska v1.3.0

Video
ID                               : 1
Format                           : AVC
Format/Info                      : Advanced Video Codec
Format profile                   : High@L4.1
Format settings, CABAC           : Yes
Format settings, ReFrames        : 5 frames
Codec ID                         : V_MPEG4/ISO/AVC
Duration                         : 1h 50mn
Bit rate                         : 2 538 Kbps
Width                            : 1 204 pixels
Height                           : 720 pixels
Display aspect ratio             : 1.672
Frame rate                       : 23.976 fps
Color space                      : YUV
Chroma subsampling               : 4:2:0
Bit depth                        : 8 bits
Scan type                        : Progressive
Bits/(Pixel*Frame)               : 0.122
Stream size                      : 1.90 GiB (73%)
Title                            : www.club-hd.com
Writing library                  : x264 core 125 r2208 d9d2288
Language                         : English
Default                          : Yes
Forced                           : No
Color primaries                  : BT.709-5, BT.1361, IEC 61966-2-4, SMPTE RP177
Transfer characteristics         : BT.709-5, BT.1361
Matrix coefficients              : BT.709-5, BT.1361, IEC 61966-2-4 709, SMPTE RP177

Audio #1
ID                               : 2
Format                           : AC-3
Format/Info                      : Audio Coding 3
Mode extension                   : CM (complete main)
Codec ID                         : A_AC3
Duration                         : 1h 50mn
Bit rate mode                    : Constant
Bit rate                         : 448 Kbps
Channel(s)                       : 6 channels
Channel positions                : Front: L C R, Side: L R, LFE
Sampling rate                    : 48.0 KHz
Bit depth                        : 16 bits
Compression mode                 : Lossy
Stream size                      : 353 MiB (13%)
Title                            : www.club-hd.com  >>  Latino
Language                         : Spanish
Default                          : Yes
Forced                           : No

Audio #2
ID                               : 3
Format                           : AC-3
Format/Info                      : Audio Coding 3
Mode extension                   : CM (complete main)
Codec ID                         : A_AC3
Duration                         : 1h 50mn
Bit rate mode                    : Constant
Bit rate                         : 384 Kbps
Channel(s)                       : 6 channels
Channel positions                : Front: L C R, Side: L R, LFE
Sampling rate                    : 48.0 KHz
Bit depth                        : 16 bits
Compression mode                 : Lossy
Stream size                      : 302 MiB (11%)
Title                            : www.club-hd.com  >>  Inglés
Language                         : English
Default                          : No
Forced                           : No

Text #1
ID                               : 4
Format                           : UTF-8
Codec ID                         : S_TEXT/UTF8
Codec ID/Info                    : UTF-8 Plain Text
Title                            : Forzados
Language                         : Spanish
Default                          : Yes
Forced                           : No

Text #2
ID                               : 5
Format                           : UTF-8
Codec ID                         : S_TEXT/UTF8
Codec ID/Info                    : UTF-8 Plain Text
Language                         : Spanish
Default                          : No
Forced                           : No

Menu
00:00:00.000                     : en:00:00:00.000
00:03:19.199                     : en:00:03:19.199
00:05:02.677                     : en:00:05:02.677
00:07:49.219                     : en:00:07:49.219
00:08:53.116                     : en:00:08:53.116
00:09:56.596                     : en:00:09:56.596
00:11:34.736                     : en:00:11:34.736
00:15:55.079                     : en:00:15:55.079
00:17:56.951                     : en:00:17:56.951
00:22:39.108                     : en:00:22:39.108
00:25:18.559                     : en:00:25:18.559
00:31:25.634                     : en:00:31:25.634
00:33:37.224                     : en:00:33:37.224
00:36:41.366                     : en:00:36:41.366
00:40:41.522                     : en:00:40:41.522
00:42:59.660                     : en:00:42:59.660
00:47:48.574                     : en:00:47:48.574
00:50:11.800                     : en:00:50:11.800
00:54:09.121                     : en:00:54:09.121
00:56:34.182                     : en:00:56:34.182
01:00:12.567                     : en:01:00:12.567
01:02:56.272                     : en:01:02:56.272
01:04:45.215                     : en:01:04:45.215
01:06:47.253                     : en:01:06:47.253
01:09:50.269                     : en:01:09:50.269
01:13:04.755                     : en:01:13:04.755
01:14:44.939                     : en:01:14:44.939
01:20:40.836                     : en:01:20:40.836
01:25:01.138                     : en:01:25:01.138
01:27:53.852                     : en:01:27:53.852
01:38:00.583                     : en:01:38:00.583
01:45:29.532                     : en:01:45:29.532











Enlaces de Mega y Fireload solo disponibles para Miembros VIP

Compra tu Membresía VIP y apoya a Club-HD!

ATENCIÓN! Tenemos TODO el material de Club-HD disponible por Mega y Fireload, enlaces 100% activos y online hasta la fecha

Llévate tus cuentas Mega PRO II gratis con tu membresía VIP!
Todos los posts vivos con links de Mega y Fireload.
Todo el material de Club-HD desbloqueado y sin publicidad.

Click Aquí para más información.



Enlaces de Mega y Fireload solo disponibles para Miembros VIP

Compra tu Membresía VIP y apoya a Club-HD!

ATENCIÓN! Tenemos TODO el material de Club-HD disponible por Mega y Fireload, enlaces 100% activos y online hasta la fecha

Llévate tus cuentas Mega PRO II gratis con tu membresía VIP!
Todos los posts vivos con links de Mega y Fireload.
Todo el material de Club-HD desbloqueado y sin publicidad.

Click Aquí para más información.



Enlaces de Mega y Fireload solo disponibles para Miembros VIP

Compra tu Membresía VIP y apoya a Club-HD!

ATENCIÓN! Tenemos TODO el material de Club-HD disponible por Mega y Fireload, enlaces 100% activos y online hasta la fecha

Llévate tus cuentas Mega PRO II gratis con tu membresía VIP!
Todos los posts vivos con links de Mega y Fireload.
Todo el material de Club-HD desbloqueado y sin publicidad.

Click Aquí para más información.



Para ver este contenido oculto, debes dar click en una de las siguientes reacciones : Like Like, Love Love, Haha Haha, Wow Wow, Sad Sad, Angry Angry



Para ver este contenido oculto, debes dar click en una de las siguientes reacciones : Like Like, Love Love, Haha Haha, Wow Wow, Sad Sad, Angry Angry
 
Última edición:

Howl

Well-known member
Miembro VIP
Registro
28 Ago 2012
Mensajes
1.765
Reacciones
87
Puntos
48

Reputation:

poco a poco se va completado la coleccion, gracias :dplgar:
 

Bankai

Active member
Uploader
Colaborador
Registro
28 Ago 2012
Mensajes
733
Reacciones
48
Puntos
28

Reputation:

grazie master eres el mejor
 

Lug

Well-known member
Registro
24 Oct 2012
Mensajes
1.691
Reacciones
37
Puntos
48
Edad
62

Reputation:

Seguimos la serie de Bond...
 

Lcreme

Well-known member
Registro
27 Ago 2012
Mensajes
2.092
Reacciones
105
Puntos
63

Reputation:

Gracias subiendo la coleccioN!
 

Usuarios Que Están Viendo Este Tema (Total: 1, Miembros: 0, Invitados: 1)

Arriba