James Bond: Live and Let Die (1973) m-720p Dual Latino-Inglés [Subt. Esp] (Aventura. Acción)

Maestro Revolver

Administrador
Registro
9 Ago 2012
Mensajes
3.157
Reacciones (ptje)
55.202


Live-and-Let-Die.jpg




FICHA_TECNICA.png


TÍTULO ORIGINAL: Live and Let Die (James Bond 8)
AÑO: 1973
DURACIÓN: 121 min.
PAÍS: Reino Unido
DIRECTOR: Guy Hamilton
GUIÓN: Tom Mankiewicz (Personaje: Ian Fleming)
REPARTO: Roger Moore, Yaphet Kotto, Jane Seymour, Clifton James, Julius W. Harris, Geoffrey Holder, David Hedison, Gloria Hendry, Bernard Lee, Lois Maxwell
PRODUCTORA: United Artists
GÉNERO: Aventuras. Acción | James Bond. Espionaje
imdb-logo.png
: http://www.imdb.com/title/tt0070328/




SINOPSIS.png


En tan sólo veinticuatro horas, tres agentes del servicio secreto británico que investigaban una red de tráfico de drogas aparecen asesinados en extrañas circunstancias. Todas las pistas conducen a Mister Big y a un diplomático llamado Katanga. El agente 007, James Bond, es enviado a Nueva York para investigar al enigmático personaje.




TRAILER.png






CAPTURAS.png


1.jpg


2.jpg


3.jpg


4.jpg


5.jpg


6.jpg


La pelicula NO tiene ninguna marca... solo colocamos el nombre de esta web en las capturas




DATOS_TECNICOS.png


Código:
General
Format                                   : Matroska
Format version                           : Version 2
File size                                : 2.82 GiB
Duration                                 : 2h 1mn
Overall bit rate                         : 3 322 Kbps
Movie name                               : www.club-hd.com
Encoded date                             : UTC 2012-12-01 23:58:54
Writing application                      : mkvmerge v5.7.0 ('The Whirlwind') built on Jul  8 2012 20:08:51
Writing library                          : libebml v1.2.3 + libmatroska v1.3.0

Video
ID                                       : 1
Format                                   : AVC
Format/Info                              : Advanced Video Codec
Format profile                           : [email protected]
Format settings, CABAC                   : Yes
Format settings, ReFrames                : 5 frames
Codec ID                                 : V_MPEG4/ISO/AVC
Duration                                 : 2h 1mn
Bit rate                                 : 2 488 Kbps
Width                                    : 1 280 pixels
Height                                   : 696 pixels
Display aspect ratio                     : 1.85:1
Frame rate mode                          : Constant
Frame rate                               : 23.976 fps
Color space                              : YUV
Chroma subsampling                       : 4:2:0
Bit depth                                : 8 bits
Scan type                                : Progressive
Bits/(Pixel*Frame)                       : 0.116
Stream size                              : 2.06 GiB (73%)
Title                                    : www.club-hd.com
Writing library                          : x264 core 125 r2208 d9d2288
Language                                 : English
Default                                  : Yes
Forced                                   : No
Color primaries                          : BT.709
Transfer characteristics                 : BT.709
Matrix coefficients                      : BT.709

Audio #1
ID                                       : 2
Format                                   : AC-3
Format/Info                              : Audio Coding 3
Mode extension                           : CM (complete main)
Format settings, Endianness              : Big
Codec ID                                 : A_AC3
Duration                                 : 2h 1mn
Bit rate mode                            : Constant
Bit rate                                 : 448 Kbps
Channel(s)                               : 6 channels
Channel positions                        : Front: L C R, Side: L R, LFE
Sampling rate                            : 48.0 KHz
Bit depth                                : 16 bits
Compression mode                         : Lossy
Stream size                              : 390 MiB (13%)
Title                                    : www.club-hd.com  >>  Latino
Language                                 : Spanish
Default                                  : Yes
Forced                                   : No

Audio #2
ID                                       : 3
Format                                   : AC-3
Format/Info                              : Audio Coding 3
Mode extension                           : CM (complete main)
Format settings, Endianness              : Big
Codec ID                                 : A_AC3
Duration                                 : 2h 1mn
Bit rate mode                            : Constant
Bit rate                                 : 384 Kbps
Channel(s)                               : 6 channels
Channel positions                        : Front: L C R, Side: L R, LFE
Sampling rate                            : 48.0 KHz
Bit depth                                : 16 bits
Compression mode                         : Lossy
Stream size                              : 334 MiB (12%)
Title                                    : www.club-hd.com  >>  Inglés
Language                                 : English
Default                                  : No
Forced                                   : No

Text #1
ID                                       : 4
Format                                   : UTF-8
Codec ID                                 : S_TEXT/UTF8
Codec ID/Info                            : UTF-8 Plain Text
Title                                    : Forzados
Language                                 : Spanish
Default                                  : Yes
Forced                                   : No

Text #2
ID                                       : 5
Format                                   : UTF-8
Codec ID                                 : S_TEXT/UTF8
Codec ID/Info                            : UTF-8 Plain Text
Language                                 : Spanish
Default                                  : No
Forced                                   : No

Menu
00:00:00.000                             : en:00:00:00.000
00:04:56.129                             : en:00:04:56.129
00:07:37.874                             : en:00:07:37.874
00:12:31.167                             : en:00:12:31.167
00:17:57.410                             : en:00:17:57.410
00:22:36.397                             : en:00:22:36.397
00:26:31.381                             : en:00:26:31.381
00:28:49.853                             : en:00:28:49.853
00:30:33.582                             : en:00:30:33.582
00:34:46.126                             : en:00:34:46.126
00:38:19.297                             : en:00:38:19.297
00:41:54.887                             : en:00:41:54.887
00:46:54.061                             : en:00:46:54.061
00:51:06.939                             : en:00:51:06.939
00:54:51.497                             : en:00:54:51.497
00:57:18.727                             : en:00:57:18.727
01:03:02.278                             : en:01:03:02.278
01:04:58.812                             : en:01:04:58.812
01:07:06.397                             : en:01:07:06.397
01:10:47.702                             : en:01:10:47.702
01:14:53.614                             : en:01:14:53.614
01:19:29.223                             : en:01:19:29.223
01:26:17.714                             : en:01:26:17.714
01:31:55.510                             : en:01:31:55.510
01:35:48.826                             : en:01:35:48.826
01:40:27.521                             : en:01:40:27.521
01:44:50.284                             : en:01:44:50.284
01:47:40.746                             : en:01:47:40.746
01:49:41.033                             : en:01:49:41.033
01:55:33.927                             : en:01:55:33.927
01:56:30.817                             : en:01:56:30.817
02:00:05.990                             : en:02:00:05.990




Sin Contraseña | Simple Extracción




Descarga.png

Links Intercambiables



google-drive-vip.png


Tenemos TODO el material de Club-HD disponible por Mega, enlaces 100% activos y online hasta la fecha

Llévate tus cuentas Mega PRO III gratis con tu membresía VIP!
Todos los posts vivos con links de Mega.
Todo el material de Club-HD desbloqueado y sin publicidad.

Obtén más información sobre nuestras Membresías VIP




MEGA.jpg

Tenemos TODO el material de Club-HD disponible por Mega, enlaces 100% activos y online hasta la fecha

Llévate tus cuentas Mega PRO III gratis con tu membresía VIP!
Todos los posts vivos con links de Mega.
Todo el material de Club-HD desbloqueado y sin publicidad.

Obtén más información sobre nuestras Membresías VIP


1FICHIER-VIP.png

Tenemos TODO el material de Club-HD disponible por Mega, enlaces 100% activos y online hasta la fecha

Llévate tus cuentas Mega PRO III gratis con tu membresía VIP!
Todos los posts vivos con links de Mega.
Todo el material de Club-HD desbloqueado y sin publicidad.

Obtén más información sobre nuestras Membresías VIP


UPLOADED.TO_BANNER.png

Para ver este contenido oculto, debes dar click en el botón"Like", o cualquiera de las otras reacciones:

Me Gusta Me Gusta, Me Encanta Me Encanta, Jaja Jaja, Wow Wow, Triste Triste, Molesto Molesto

OPENLOAD.png

Para ver este contenido oculto, debes dar click en el botón"Like", o cualquiera de las otras reacciones:

Me Gusta Me Gusta, Me Encanta Me Encanta, Jaja Jaja, Wow Wow, Triste Triste, Molesto Molesto
 
Última edición por un moderador:
me gusta la trama blaxplotation de este film otra para bajar Desc_g_
 
un lujo tener esta coleccion gracias a ti bestia !!! graciassss:dplgar::dplgar:
 
gracias!!!!!!
 
Última edición por un moderador:
Gracias, no podia entrar en la pagina, pense q cerraron, por suerte noooo!!!!
 
Volver