James Bond: Moonraker (1979) m-720p Dual Latino-Inglés [Subt. Esp] (Aventura. Acción. Ciencia ficción)

Maestro Revolver

Administrador
Registro
9 Ago 2012
Mensajes
3.157
Reacciones (ptje)
54.925


Moonraker.jpg




FICHA_TECNICA.png


TÍTULO ORIGINAL: Moonraker (James Bond 11)
AÑO: 1979
DURACIÓN: 126 min.
PAÍS: Reino Unido
DIRECTOR: Lewis Gilbert
GUIÓN: Christopher Wood (Personaje: Ian Fleming)
REPARTO: Roger Moore, Lois Chiles, Michael Lonsdale, Richard Kiel, Corinne Cléry, Bernard Lee, Lois Maxwell, Geoffrey Keen, Desmond Llewelyn, Toshirô Suga, Jean-Pierre Castaldi, Walter Gotell
PRODUCTORA: Co-producción GB-Francia; Danjaq / Les Productions Artistes Associés / Eon Productions
GÉNERO: Aventuras. Acción. Ciencia ficción | James Bond. Espionaje. Aventura espacial
imdb-logo.png
: http://www.imdb.com/title/tt0079574/




SINOPSIS.png


El agente secreto James Bond recibe la orden de localizar la nave espacial Moonraker, que ha desaparecido misteriosamente. Sus primeras pesquisas lo llevan a seguir la pista del millonario Hugo Drax, el constructor de la nave. Después de investigar en Venecia y en Río de Janeiro, Bond es capturado por Drax, y descubre que el villano posee una base de lanzamiento de cohetes espaciales con los que se propone esparcir un gas tóxico que acabe con la vida terrestre, pero ésta no es más que la primera fase de un perverso plan que Bond, ayudado por la Doctora Goodhead, intentará frustrar.




TRAILER.png






CAPTURAS.png


1.jpg


2.jpg


3.jpg


4.jpg


5.jpg


6.jpg


La pelicula NO tiene ninguna marca... solo colocamos el nombre de esta web en las capturas




DATOS_TECNICOS.png


Código:
General
Format                                   : Matroska
Format version                           : Version 2
File size                                : 2.94 GiB
Duration                                 : 2h 6mn
Overall bit rate                         : 3 323 Kbps
Movie name                               : www.club-hd.com
Encoded date                             : UTC 2012-12-02 18:18:12
Writing application                      : mkvmerge v5.7.0 ('The Whirlwind') built on Jul  8 2012 20:08:51
Writing library                          : libebml v1.2.3 + libmatroska v1.3.0

Video
ID                                       : 1
Format                                   : AVC
Format/Info                              : Advanced Video Codec
Format profile                           : [email protected]
Format settings, CABAC                   : Yes
Format settings, ReFrames                : 5 frames
Codec ID                                 : V_MPEG4/ISO/AVC
Duration                                 : 2h 6mn
Bit rate                                 : 2 489 Kbps
Width                                    : 1 280 pixels
Height                                   : 544 pixels
Display aspect ratio                     : 2.35:1
Frame rate mode                          : Constant
Frame rate                               : 23.976 fps
Color space                              : YUV
Chroma subsampling                       : 4:2:0
Bit depth                                : 8 bits
Scan type                                : Progressive
Bits/(Pixel*Frame)                       : 0.149
Stream size                              : 2.14 GiB (73%)
Title                                    : www.club-hd.com
Writing library                          : x264 core 125 r2208 d9d2288
Language                                 : English
Default                                  : Yes
Forced                                   : No
Color primaries                          : BT.709
Transfer characteristics                 : BT.709
Matrix coefficients                      : BT.709

Audio #1
ID                                       : 2
Format                                   : AC-3
Format/Info                              : Audio Coding 3
Mode extension                           : CM (complete main)
Format settings, Endianness              : Big
Codec ID                                 : A_AC3
Duration                                 : 2h 6mn
Bit rate mode                            : Constant
Bit rate                                 : 448 Kbps
Channel(s)                               : 6 channels
Channel positions                        : Front: L C R, Side: L R, LFE
Sampling rate                            : 48.0 KHz
Bit depth                                : 16 bits
Compression mode                         : Lossy
Stream size                              : 405 MiB (13%)
Title                                    : www.club-hd.com  >>  Latino
Language                                 : Spanish
Default                                  : Yes
Forced                                   : No

Audio #2
ID                                       : 3
Format                                   : AC-3
Format/Info                              : Audio Coding 3
Mode extension                           : CM (complete main)
Format settings, Endianness              : Big
Codec ID                                 : A_AC3
Duration                                 : 2h 6mn
Bit rate mode                            : Constant
Bit rate                                 : 384 Kbps
Channel(s)                               : 6 channels
Channel positions                        : Front: L C R, Side: L R, LFE
Sampling rate                            : 48.0 KHz
Bit depth                                : 16 bits
Compression mode                         : Lossy
Stream size                              : 347 MiB (12%)
Title                                    : www.club-hd.com  >>  Inglés
Language                                 : English
Default                                  : No
Forced                                   : No

Text #1
ID                                       : 4
Format                                   : UTF-8
Codec ID                                 : S_TEXT/UTF8
Codec ID/Info                            : UTF-8 Plain Text
Title                                    : Forzados
Language                                 : Spanish
Default                                  : Yes
Forced                                   : No

Text #2
ID                                       : 5
Format                                   : UTF-8
Codec ID                                 : S_TEXT/UTF8
Codec ID/Info                            : UTF-8 Plain Text
Language                                 : Spanish
Default                                  : No
Forced                                   : No

Menu
00:00:00.000                             : en:00:00:00.000
00:02:31.401                             : en:00:02:31.401
00:05:50.892                             : en:00:05:50.892
00:11:25.351                             : en:00:11:25.351
00:18:58.554                             : en:00:18:58.554
00:24:04.276                             : en:00:24:04.276
00:26:06.231                             : en:00:26:06.231
00:29:14.336                             : en:00:29:14.336
00:32:00.877                             : en:00:32:00.877
00:33:42.562                             : en:00:33:42.562
00:37:54.314                             : en:00:37:54.314
00:41:31.322                             : en:00:41:31.322
00:45:41.197                             : en:00:45:41.197
00:49:07.153                             : en:00:49:07.153
00:56:00.274                             : en:00:56:00.274
00:59:30.484                             : en:00:59:30.484
01:05:22.252                             : en:01:05:22.252
01:10:33.229                             : en:01:10:33.229
01:13:00.835                             : en:01:13:00.835
01:16:15.070                             : en:01:16:15.070
01:18:38.839                             : en:01:18:38.839
01:20:36.874                             : en:01:20:36.874
01:23:30.047                             : en:01:23:30.047
01:27:45.635                             : en:01:27:45.635
01:31:30.568                             : en:01:31:30.568
01:34:12.272                             : en:01:34:12.272
01:38:38.621                             : en:01:38:38.621
01:43:14.563                             : en:01:43:14.563
01:48:47.980                             : en:01:48:47.980
01:53:44.693                             : en:01:53:44.693
01:59:23.156                             : en:01:59:23.156
02:03:46.961                             : en:02:03:46.961




Sin Contraseña | Simple Extracción




Descarga.png

Links Intercambiables



google-drive-vip.png


Tenemos TODO el material de Club-HD disponible por Mega, enlaces 100% activos y online hasta la fecha

Llévate tus cuentas Mega PRO III gratis con tu membresía VIP!
Todos los posts vivos con links de Mega.
Todo el material de Club-HD desbloqueado y sin publicidad.

Obtén más información sobre nuestras Membresías VIP




MEGA.jpg

Tenemos TODO el material de Club-HD disponible por Mega, enlaces 100% activos y online hasta la fecha

Llévate tus cuentas Mega PRO III gratis con tu membresía VIP!
Todos los posts vivos con links de Mega.
Todo el material de Club-HD desbloqueado y sin publicidad.

Obtén más información sobre nuestras Membresías VIP


1FICHIER-VIP.png

Tenemos TODO el material de Club-HD disponible por Mega, enlaces 100% activos y online hasta la fecha

Llévate tus cuentas Mega PRO III gratis con tu membresía VIP!
Todos los posts vivos con links de Mega.
Todo el material de Club-HD desbloqueado y sin publicidad.

Obtén más información sobre nuestras Membresías VIP


UPLOADED.TO_BANNER.png

Para ver este contenido oculto, debes dar click en el botón"Like", o cualquiera de las otras reacciones:

Me Gusta Me Gusta, Me Encanta Me Encanta, Jaja Jaja, Wow Wow, Triste Triste, Molesto Molesto

OPENLOAD.png

Para ver este contenido oculto, debes dar click en el botón"Like", o cualquiera de las otras reacciones:

Me Gusta Me Gusta, Me Encanta Me Encanta, Jaja Jaja, Wow Wow, Triste Triste, Molesto Molesto
 
Última edición por un moderador:
pues otra mas revolver, acabo de descargar la ultima que habias posteado, ahora sigue esta, ya cada vez son menos, gracias
 
hry otro super mega clasico como ustedes ningunos gracias
 
Volver