James Bond: Quantum of Solace (2008) m-720p Dual Latino-Inglés [Subt. Esp] (Acción)

Maestro Revolver

Administrador
Registro
9 Ago 2012
Mensajes
3.157
Reacciones (ptje)
54.925


Quantum-of-solace.jpg




FICHA_TECNICA.png


TÍTULO ORIGINAL: Quantum of Solace (James Bond 22)
AÑO: 2008
DURACIÓN: 106 min.
PAÍS: Reino Unido
DIRECTOR: Marc Forster
GUIÓN: Robert Wade, Paul Haggis, Neal Purvis (Personaje: Ian Fleming)
REPARTO: Daniel Craig, Judi Dench, Olga Kurylenko, Mathieu Amalric, Jesper Christensen, Joaquín Cosio, Jeffrey Wright, Giancarlo Giannini, Gemma Arterton, Fernando Guillén Cuervo, Rory Kinnear, Stana Katic
PRODUCTORA: Metro-Goldwyn-Mayer / Columbia Pictures
GÉNERO: Acción | James Bond. Espionaje. Secuela
imdb-logo.png
: http://www.imdb.com/title/tt0830515/




SINOPSIS.png


Traicionado por Vesper, la mujer a la que amaba, 007 se plantea su nueva misión como algo personal. Durante su investigación, Bond y M interrogan a Mr. White, que les revela que la organización que chantajeó a Vesper es mucho más compleja y peligrosa de lo que imaginan. El servicio de inteligencia forense vincula a un traidor del Mi6 con una cuenta bancaria en Haití, donde Bond conoce a la bella pero combativa Camille, una mujer que tiene sus propios motivos para vengarse. Gracias a Camille, Bond descubre la existencia de Dominic Greene, despiadado hombre de negocios y miembro importante de la misteriosa organización. Durante una misión que lo lleva a Austria, Italia y Sudamérica, Bond descubre que el objetivo de Green es controlar, con la ayuda del general Medrano, uno de los recursos naturales más importantes del mundo; pero, para ello, tiene que derrocar al gobierno de un país sudamericano. A medida que Bond se acerca al responsable de la traición de Vesper, debe actuar con más rapidez que la CIA y los terroristas si quiere desmantelar el siniestro plan de Greene.




TRAILER.png






CAPTURAS.png


1.jpg


2.jpg


3.jpg


4.jpg


5.jpg


6.jpg


La pelicula NO tiene ninguna marca... solo colocamos el nombre de esta web en las capturas




DATOS_TECNICOS.png


Código:
General
Format                                   : Matroska
Format version                           : Version 2
File size                                : 2.48 GiB
Duration                                 : 1h 46mn
Overall bit rate                         : 3 344 Kbps
Movie name                               : www.club-hd.com
Encoded date                             : UTC 2012-12-29 07:03:27
Writing application                      : mkvmerge v5.7.0 ('The Whirlwind') built on Jul  8 2012 20:08:51
Writing library                          : libebml v1.2.3 + libmatroska v1.3.0

Video
ID                                       : 1
Format                                   : AVC
Format/Info                              : Advanced Video Codec
Format profile                           : [email protected]
Format settings, CABAC                   : Yes
Format settings, ReFrames                : 5 frames
Codec ID                                 : V_MPEG4/ISO/AVC
Duration                                 : 1h 46mn
Bit rate                                 : 2 510 Kbps
Width                                    : 1 280 pixels
Height                                   : 536 pixels
Display aspect ratio                     : 2.40:1
Frame rate mode                          : Constant
Frame rate                               : 23.976 fps
Color space                              : YUV
Chroma subsampling                       : 4:2:0
Bit depth                                : 8 bits
Scan type                                : Progressive
Bits/(Pixel*Frame)                       : 0.153
Stream size                              : 1.81 GiB (73%)
Title                                    : www.club-hd.com
Writing library                          : x264 core 125 r2208 d9d2288
Language                                 : English
Default                                  : Yes
Forced                                   : No
Color primaries                          : BT.709
Transfer characteristics                 : BT.709
Matrix coefficients                      : BT.709

Audio #1
ID                                       : 2
Format                                   : AC-3
Format/Info                              : Audio Coding 3
Mode extension                           : CM (complete main)
Format settings, Endianness              : Big
Codec ID                                 : A_AC3
Duration                                 : 1h 46mn
Bit rate mode                            : Constant
Bit rate                                 : 448 Kbps
Channel(s)                               : 6 channels
Channel positions                        : Front: L C R, Side: L R, LFE
Sampling rate                            : 48.0 KHz
Bit depth                                : 16 bits
Compression mode                         : Lossy
Stream size                              : 340 MiB (13%)
Title                                    : www.club-hd.com  >>  Latino
Language                                 : Spanish
Default                                  : Yes
Forced                                   : No

Audio #2
ID                                       : 3
Format                                   : AC-3
Format/Info                              : Audio Coding 3
Mode extension                           : CM (complete main)
Format settings, Endianness              : Big
Codec ID                                 : A_AC3
Duration                                 : 1h 46mn
Bit rate mode                            : Constant
Bit rate                                 : 384 Kbps
Channel(s)                               : 6 channels
Channel positions                        : Front: L C R, Side: L R, LFE
Sampling rate                            : 48.0 KHz
Bit depth                                : 16 bits
Compression mode                         : Lossy
Stream size                              : 292 MiB (11%)
Title                                    : www.club-hd.com  >>  Inglés
Language                                 : English
Default                                  : No
Forced                                   : No

Text
ID                                       : 4
Format                                   : UTF-8
Codec ID                                 : S_TEXT/UTF8
Codec ID/Info                            : UTF-8 Plain Text
Language                                 : Spanish
Default                                  : No
Forced                                   : No

Menu
00:00:00.000                             : en:00:00:00.000
00:04:10.125                             : en:00:04:10.125
00:07:27.530                             : en:00:07:27.530
00:10:20.537                             : en:00:10:20.537
00:15:16.833                             : en:00:15:16.833
00:17:47.650                             : en:00:17:47.650
00:20:24.306                             : en:00:20:24.306
00:22:51.370                             : en:00:22:51.370
00:26:28.420                             : en:00:26:28.420
00:29:06.370                             : en:00:29:06.370
00:33:16.912                             : en:00:33:16.912
00:35:48.104                             : en:00:35:48.104
00:39:02.131                             : en:00:39:02.131
00:44:19.156                             : en:00:44:19.156
00:47:21.797                             : en:00:47:21.797
00:52:30.898                             : en:00:52:30.898
00:56:29.011                             : en:00:56:29.011
01:01:17.173                             : en:01:01:17.173
01:04:51.012                             : en:01:04:51.012
01:11:04.802                             : en:01:11:04.802
01:12:34.433                             : en:01:12:34.433
01:17:16.423                             : en:01:17:16.423
01:21:05.694                             : en:01:21:05.694
01:24:17.719                             : en:01:24:17.719
01:29:19.938                             : en:01:29:19.938
01:36:15.520                             : en:01:36:15.520
01:37:59.248                             : en:01:37:59.248
01:41:39.135                             : en:01:41:39.135




Descarga.png



MEGA.jpg

Tenemos TODO el material de Club-HD disponible por Mega, enlaces 100% activos y online hasta la fecha

Llévate tus cuentas Mega PRO III gratis con tu membresía VIP!
Todos los posts vivos con links de Mega.
Todo el material de Club-HD desbloqueado y sin publicidad.

Obtén más información sobre nuestras Membresías VIP



UPLOADED.TO_BANNER.png

Para ver este contenido oculto, debes dar click en el botón"Like", o cualquiera de las otras reacciones:

Me Gusta Me Gusta, Me Encanta Me Encanta, Jaja Jaja, Wow Wow, Triste Triste, Molesto Molesto
 
Última edición por un moderador:
Eres el mejor R21...:sprloc::sprloc::sprloc::sprloc::sprloc::sprloc::sprloc:Muchas Gracias R21...:LXR:Hurr4h
 
Gracias terminamos la coleccion el 2012 vamos al 2013 siii saludos!
 
:thank-you: Excelente Labor, me imagino el tiempo que debes dedicar para traernos todas las entregas que subes, te admiro muchisimo y por tu culpa he tenido que comprar otros 2 discos de 2Tb pues ya no daba a basto, :LXR:
Felicitaciones y por lo que veo desde el 1er dia hasta el ultimo del año vas a tenernos a todos pendientes de tus post, Que tengas un muy muy Feliz Año en compañia de los que te acompañan en la vida real l0l y no en nuestro acostumbrado mundo virtual tvhappy
 
Última edición:
Exelente aporte.
Solo falta una para la colección completa
Muchísimas gracias
 
:thank-you: LES DESEO A TODOS LOS AMIGOS DEL CLUB-HD UN EXCELENTE AÑO 2013, DISFRUTENLO AL MAXIMO MIS AMIGOS.Dr1nks
 
De nuevo muchas gracias! Yo también voy a necesitar otro disco duro, pero eso es genial. Saludos! :bsrs:
 
Volver