James Bond: The Man With the Golden Gun (1974) m-720p Dual Latino-Inglés [Subt. Esp] (Aventura. Acción)

Maestro Revolver

Well-known member
Miembro del Staff
Administrador
Registro
9 Ago 2012
Mensajes
3.569
Reacciones
59.341
Puntos
113

Reputation:









TÍTULO ORIGINAL: The Man With the Golden Gun (James Bond 9)
AÑO: 1974
DURACIÓN: 125 min.
PAÍS: Reino Unido
DIRECTOR: Guy Hamilton
GUIÓN: Tom Mankiewicz & Richard Maibaum (Personaje: Ian Fleming)
REPARTO: Roger Moore, Christopher Lee, Britt Ekland, Maud Adams, Herve Villechaize, Clifton James, Marc Lawrence, Bernard Lee
PRODUCTORA: United Artists
GÉNERO: Aventuras. Acción | James Bond. Espionaje
: http://www.imdb.com/title/tt0071807/






El superagente británico 007 habrá de vérselas ahora con el más peligroso asesino a sueldo del momento: un hombre llamado Scaramanga, más conocido como el hombre de la pistola de oro, que tratará de deshacerse de Bond con los más sofisticados recursos...
























La pelicula NO tiene ninguna marca... solo colocamos el nombre de esta web en las capturas






Código:
General
Format                                   : Matroska
Format version                           : Version 2
File size                                : 2.93 GiB
Duration                                 : 2h 5mn
Overall bit rate                         : 3 352 Kbps
Movie name                               : www.club-hd.com
Encoded date                             : UTC 2012-12-02 05:48:12
Writing application                      : mkvmerge v5.7.0 ('The Whirlwind') built on Jul  8 2012 20:08:51
Writing library                          : libebml v1.2.3 + libmatroska v1.3.0

Video
ID                                       : 1
Format                                   : AVC
Format/Info                              : Advanced Video Codec
Format profile                           : High@L4.1
Format settings, CABAC                   : Yes
Format settings, ReFrames                : 5 frames
Codec ID                                 : V_MPEG4/ISO/AVC
Duration                                 : 2h 5mn
Bit rate                                 : 2 518 Kbps
Width                                    : 1 280 pixels
Height                                   : 696 pixels
Display aspect ratio                     : 1.85:1
Frame rate mode                          : Constant
Frame rate                               : 23.976 fps
Color space                              : YUV
Chroma subsampling                       : 4:2:0
Bit depth                                : 8 bits
Scan type                                : Progressive
Bits/(Pixel*Frame)                       : 0.118
Stream size                              : 2.15 GiB (73%)
Title                                    : www.club-hd.com
Writing library                          : x264 core 125 r2208 d9d2288
Language                                 : English
Default                                  : Yes
Forced                                   : No
Color primaries                          : BT.709
Transfer characteristics                 : BT.709
Matrix coefficients                      : BT.709

Audio #1
ID                                       : 2
Format                                   : AC-3
Format/Info                              : Audio Coding 3
Mode extension                           : CM (complete main)
Format settings, Endianness              : Big
Codec ID                                 : A_AC3
Duration                                 : 2h 5mn
Bit rate mode                            : Constant
Bit rate                                 : 448 Kbps
Channel(s)                               : 6 channels
Channel positions                        : Front: L C R, Side: L R, LFE
Sampling rate                            : 48.0 KHz
Bit depth                                : 16 bits
Compression mode                         : Lossy
Stream size                              : 401 MiB (13%)
Title                                    : www.club-hd.com  >>  Latino
Language                                 : Spanish
Default                                  : Yes
Forced                                   : No

Audio #2
ID                                       : 3
Format                                   : AC-3
Format/Info                              : Audio Coding 3
Mode extension                           : CM (complete main)
Format settings, Endianness              : Big
Codec ID                                 : A_AC3
Duration                                 : 2h 5mn
Bit rate mode                            : Constant
Bit rate                                 : 384 Kbps
Channel(s)                               : 6 channels
Channel positions                        : Front: L C R, Side: L R, LFE
Sampling rate                            : 48.0 KHz
Bit depth                                : 16 bits
Compression mode                         : Lossy
Stream size                              : 344 MiB (11%)
Title                                    : www.club-hd.com  >>  Inglés
Language                                 : English
Default                                  : No
Forced                                   : No

Text #1
ID                                       : 4
Format                                   : UTF-8
Codec ID                                 : S_TEXT/UTF8
Codec ID/Info                            : UTF-8 Plain Text
Title                                    : Forzados
Language                                 : Spanish
Default                                  : Yes
Forced                                   : No

Text #2
ID                                       : 5
Format                                   : UTF-8
Codec ID                                 : S_TEXT/UTF8
Codec ID/Info                            : UTF-8 Plain Text
Language                                 : Spanish
Default                                  : No
Forced                                   : No

Menu
00:00:00.000                             : en:00:00:00.000
00:08:18.081                             : en:00:08:18.081
00:10:49.816                             : en:00:10:49.816
00:14:58.773                             : en:00:14:58.773
00:19:58.406                             : en:00:19:58.406
00:21:31.874                             : en:00:21:31.874
00:24:56.745                             : en:00:24:56.745
00:28:03.140                             : en:00:28:03.140
00:33:17.996                             : en:00:33:17.996
00:36:42.575                             : en:00:36:42.575
00:39:41.129                             : en:00:39:41.129
00:44:04.267                             : en:00:44:04.267
00:48:27.988                             : en:00:48:27.988
00:51:51.608                             : en:00:51:51.608
00:56:46.278                             : en:00:56:46.278
00:58:43.311                             : en:00:58:43.311
01:03:23.800                             : en:01:03:23.800
01:05:25.255                             : en:01:05:25.255
01:07:53.486                             : en:01:07:53.486
01:14:53.197                             : en:01:14:53.197
01:19:22.800                             : en:01:19:22.800
01:27:17.232                             : en:01:27:17.232
01:31:06.670                             : en:01:31:06.670
01:33:48.164                             : en:01:33:48.164
01:36:57.395                             : en:01:36:57.395
01:42:02.450                             : en:01:42:02.450
01:45:31.242                             : en:01:45:31.242
01:48:30.212                             : en:01:48:30.212
01:52:38.001                             : en:01:52:38.001
01:58:54.627                             : en:01:58:54.627
02:01:59.729                             : en:02:01:59.729
02:03:41.414                             : en:02:03:41.414




Sin Contraseña | Simple Extracción





Links Intercambiables





Enlaces de Mega y Fireload solo disponibles para Miembros VIP

Compra tu Membresía VIP y apoya a Club-HD!

ATENCIÓN! Tenemos TODO el material de Club-HD disponible por Mega y Fireload, enlaces 100% activos y online hasta la fecha

Llévate tus cuentas Mega PRO II gratis con tu membresía VIP!
Todos los posts vivos con links de Mega y Fireload.
Todo el material de Club-HD desbloqueado y sin publicidad.

Click Aquí para más información.




Enlaces de Mega y Fireload solo disponibles para Miembros VIP

Compra tu Membresía VIP y apoya a Club-HD!

ATENCIÓN! Tenemos TODO el material de Club-HD disponible por Mega y Fireload, enlaces 100% activos y online hasta la fecha

Llévate tus cuentas Mega PRO II gratis con tu membresía VIP!
Todos los posts vivos con links de Mega y Fireload.
Todo el material de Club-HD desbloqueado y sin publicidad.

Click Aquí para más información.


Enlaces de Mega y Fireload solo disponibles para Miembros VIP

Compra tu Membresía VIP y apoya a Club-HD!

ATENCIÓN! Tenemos TODO el material de Club-HD disponible por Mega y Fireload, enlaces 100% activos y online hasta la fecha

Llévate tus cuentas Mega PRO II gratis con tu membresía VIP!
Todos los posts vivos con links de Mega y Fireload.
Todo el material de Club-HD desbloqueado y sin publicidad.

Click Aquí para más información.


Para ver este contenido oculto, debes dar click en una de las siguientes reacciones : Like Like, Love Love, Haha Haha, Wow Wow, Sad Sad, Angry Angry


Para ver este contenido oculto, debes dar click en una de las siguientes reacciones : Like Like, Love Love, Haha Haha, Wow Wow, Sad Sad, Angry Angry
 
Última edición:

kinkiyi

Descansa en paz querido amigo..., Siempre te reco
Colaborador
Registro
29 Ago 2012
Mensajes
587
Reacciones
40
Puntos
0
Edad
66
Ubicación
Panamá, provincia de Colón

Reputation:

Por lo que veo uds. Nos traeran la coleccion completa de bond......23 peliculas ....ps no me perdere ninguna....esto es de coleccion..... Gracias...........
 

raulmon

New member
Registro
18 Oct 2012
Mensajes
138
Reacciones
0
Puntos
0

Reputation:

James Bond: The Man With the Golden Gun (1974), gracias
 

Usuarios Que Están Viendo Este Tema (Total: 1, Miembros: 0, Invitados: 1)

Arriba