James Bond: The Spy Who Loved Me (1977) m-720p Dual Latino-Inglés [Subt. Esp] (Aventura. Acción)

Maestro Revolver

Well-known member
Miembro del Staff
Administrador
Registro
9 Ago 2012
Mensajes
3.569
Reacciones
59.366
Puntos
113

Reputation:









TÍTULO ORIGINAL: The Spy Who Loved Me (James Bond 10)
AÑO: 1977
DURACIÓN: 125 min.
PAÍS: Reino Unido
DIRECTOR: Lewis Gilbert
GUIÓN: Richard Maibaum & Christopher Wood (Personaje: Ian Fleming)
REPARTO: Roger Moore, Barbara Bach, Curd Jurgens, Richard Kiel, Caroline Munro, Walter Gotell, Geoffrey Keen, George Baker, Bernard Lee
PRODUCTORA: United Artists (Albert R. Broccoli presentation)
GÉNERO: Aventuras. Acción | James Bond. Espionaje
: http://www.imdb.com/title/tt0076752/






La misteriosa desaparición de dos submarinos nucleares exige la colaboración de los mejores agentes de los servicios secretos británico y soviético: James Bond y la mayor Amasova. Detrás de todo se encuentra el magnate Stromberg, que se propone la destrucción de la humanidad para fundar una civilización pura bajo el mar.
























La pelicula NO tiene ninguna marca... solo colocamos el nombre de esta web en las capturas






Código:
General
Format                                   : Matroska
Format version                           : Version 2
File size                                : 2.93 GiB
Duration                                 : 2h 5mn
Overall bit rate                         : 3 342 Kbps
Movie name                               : www.club-hd.com
Encoded date                             : UTC 2012-12-02 15:42:14
Writing application                      : mkvmerge v5.7.0 ('The Whirlwind') built on Jul  8 2012 20:08:51
Writing library                          : libebml v1.2.3 + libmatroska v1.3.0

Video
ID                                       : 1
Format                                   : AVC
Format/Info                              : Advanced Video Codec
Format profile                           : High@L4.1
Format settings, CABAC                   : Yes
Format settings, ReFrames                : 5 frames
Codec ID                                 : V_MPEG4/ISO/AVC
Duration                                 : 2h 5mn
Bit rate                                 : 2 507 Kbps
Width                                    : 1 280 pixels
Height                                   : 544 pixels
Display aspect ratio                     : 2.35:1
Frame rate mode                          : Constant
Frame rate                               : 23.976 fps
Color space                              : YUV
Chroma subsampling                       : 4:2:0
Bit depth                                : 8 bits
Scan type                                : Progressive
Bits/(Pixel*Frame)                       : 0.150
Stream size                              : 2.14 GiB (73%)
Title                                    : www.club-hd.com
Writing library                          : x264 core 125 r2208 d9d2288
Language                                 : English
Default                                  : Yes
Forced                                   : No
Color primaries                          : BT.709
Transfer characteristics                 : BT.709
Matrix coefficients                      : BT.709

Audio #1
ID                                       : 2
Format                                   : AC-3
Format/Info                              : Audio Coding 3
Mode extension                           : CM (complete main)
Format settings, Endianness              : Big
Codec ID                                 : A_AC3
Duration                                 : 2h 5mn
Bit rate mode                            : Constant
Bit rate                                 : 448 Kbps
Channel(s)                               : 6 channels
Channel positions                        : Front: L C R, Side: L R, LFE
Sampling rate                            : 48.0 KHz
Bit depth                                : 16 bits
Compression mode                         : Lossy
Stream size                              : 403 MiB (13%)
Title                                    : www.club-hd.com  >>  Latino
Language                                 : Spanish
Default                                  : Yes
Forced                                   : No

Audio #2
ID                                       : 3
Format                                   : AC-3
Format/Info                              : Audio Coding 3
Mode extension                           : CM (complete main)
Format settings, Endianness              : Big
Codec ID                                 : A_AC3
Duration                                 : 2h 5mn
Bit rate mode                            : Constant
Bit rate                                 : 384 Kbps
Channel(s)                               : 6 channels
Channel positions                        : Front: L C R, Side: L R, LFE
Sampling rate                            : 48.0 KHz
Bit depth                                : 16 bits
Compression mode                         : Lossy
Stream size                              : 345 MiB (11%)
Title                                    : www.club-hd.com  >>  Inglés
Language                                 : English
Default                                  : No
Forced                                   : No

Text
ID                                       : 4
Format                                   : UTF-8
Codec ID                                 : S_TEXT/UTF8
Codec ID/Info                            : UTF-8 Plain Text
Language                                 : Spanish
Default                                  : No
Forced                                   : No

Menu
00:00:00.000                             : en:00:00:00.000
00:00:49.508                             : en:00:00:49.508
00:05:59.609                             : en:00:05:59.609
00:08:05.985                             : en:00:08:05.985
00:12:37.048                             : en:00:12:37.048
00:15:15.164                             : en:00:15:15.164
00:18:01.289                             : en:00:18:01.289
00:20:35.234                             : en:00:20:35.234
00:23:16.770                             : en:00:23:16.770
00:27:28.814                             : en:00:27:28.814
00:32:58.435                             : en:00:32:58.435
00:40:01.024                             : en:00:40:01.024
00:46:12.436                             : en:00:46:12.436
00:48:31.742                             : en:00:48:31.742
00:51:06.313                             : en:00:51:06.313
00:53:24.034                             : en:00:53:24.034
00:57:37.120                             : en:00:57:37.120
01:01:14.713                             : en:01:01:14.713
01:06:03.626                             : en:01:06:03.626
01:10:39.902                             : en:01:10:39.902
01:17:02.451                             : en:01:17:02.451
01:22:40.706                             : en:01:22:40.706
01:25:27.914                             : en:01:25:27.914
01:31:05.960                             : en:01:31:05.960
01:34:50.268                             : en:01:34:50.268
01:36:16.187                             : en:01:36:16.187
01:40:37.573                             : en:01:40:37.573
01:48:56.155                             : en:01:48:56.155
01:54:11.845                             : en:01:54:11.845
01:57:53.525                             : en:01:57:53.525
01:59:45.553                             : en:01:59:45.553
02:03:56.679                             : en:02:03:56.679




Sin Contraseña | Simple Extracción





Links Intercambiables





Enlaces de Mega y Fireload solo disponibles para Miembros VIP

Compra tu Membresía VIP y apoya a Club-HD!

ATENCIÓN! Tenemos TODO el material de Club-HD disponible por Mega y Fireload, enlaces 100% activos y online hasta la fecha

Llévate tus cuentas Mega PRO II gratis con tu membresía VIP!
Todos los posts vivos con links de Mega y Fireload.
Todo el material de Club-HD desbloqueado y sin publicidad.

Click Aquí para más información.




Enlaces de Mega y Fireload solo disponibles para Miembros VIP

Compra tu Membresía VIP y apoya a Club-HD!

ATENCIÓN! Tenemos TODO el material de Club-HD disponible por Mega y Fireload, enlaces 100% activos y online hasta la fecha

Llévate tus cuentas Mega PRO II gratis con tu membresía VIP!
Todos los posts vivos con links de Mega y Fireload.
Todo el material de Club-HD desbloqueado y sin publicidad.

Click Aquí para más información.


Enlaces de Mega y Fireload solo disponibles para Miembros VIP

Compra tu Membresía VIP y apoya a Club-HD!

ATENCIÓN! Tenemos TODO el material de Club-HD disponible por Mega y Fireload, enlaces 100% activos y online hasta la fecha

Llévate tus cuentas Mega PRO II gratis con tu membresía VIP!
Todos los posts vivos con links de Mega y Fireload.
Todo el material de Club-HD desbloqueado y sin publicidad.

Click Aquí para más información.


Para ver este contenido oculto, debes dar click en una de las siguientes reacciones : Like Like, Love Love, Haha Haha, Wow Wow, Sad Sad, Angry Angry


Para ver este contenido oculto, debes dar click en una de las siguientes reacciones : Like Like, Love Love, Haha Haha, Wow Wow, Sad Sad, Angry Angry
 
Última edición:

elgrandario

Well-known member
Registro
29 Ago 2012
Mensajes
1.006
Reacciones
147
Puntos
63
Ubicación
Lima, Perú

Reputation:

Muchas gracias por seguir aportando la colección de las pelas de Bond, James Bond, jajajaja. A descargar!
 

Usuarios Que Están Viendo Este Tema (Total: 1, Miembros: 0, Invitados: 1)

Arriba