James Bond: The World is Not Enough (1999) m-720p Dual Latino-Inglés [Subt. Esp] (Aventura. Acción)

Maestro Revolver

Well-known member
Miembro del Staff
Administrador
Registro
9 Ago 2012
Mensajes
3.569
Reacciones
59.354
Puntos
113

Reputation:









TÍTULO ORIGINAL: The World is Not Enough (James Bond 19)
AÑO: 1999
DURACIÓN: 128 min.
PAÍS: Reino Unido
DIRECTOR: Michael Apted
GUIÓN: Neal Purvis, Robert Wade, Bruce Feirstein (Personaje: Ian Fleming)
REPARTO: Pierce Brosnan, Sophie Marceau, Denise Richards, Robert Carlyle, Judi Dench, María Grazia Cucinotta, Desmond Llewelyn, Robbie Coltrane, John Cleese, Serena Scott Thomas, Samantha Bond, Ulrich Thomsen
PRODUCTORA: Metro-Goldwyn-Mayer (MGM)
GÉNERO: Aventuras. Acción | James Bond. Espionaje
: http://www.imdb.com/title/tt0143145/






Tras la muerte del magnate británico del petróleo Sir Robert King en un atentado en el cuartel general del MI6, su hija Elektra hereda su billonaria fortuna en yacimientos petrolíferos en el mar Caspio. El agente 007, que se siente culpable de la muerte de King, se convierte en el guardaespaldas de Elektra. Su fabulosa fortuna atrae no sólo la atención de la prensa internacional, sino también la del asesino, Renard, un hombre con una bala alojada en el cerebro que le impide sentir dolor físico y cuya única obsesión es la venganza.
























La pelicula NO tiene ninguna marca... solo colocamos el nombre de esta web en las capturas






Código:
General
Format                                   : Matroska
Format version                           : Version 2
File size                                : 2.94 GiB
Duration                                 : 2h 8mn
Overall bit rate                         : 3 280 Kbps
Movie name                               : www.club-hd.com
Encoded date                             : UTC 2012-12-25 19:34:16
Writing application                      : mkvmerge v5.7.0 ('The Whirlwind') built on Jul  8 2012 20:08:51
Writing library                          : libebml v1.2.3 + libmatroska v1.3.0

Video
ID                                       : 1
Format                                   : AVC
Format/Info                              : Advanced Video Codec
Format profile                           : High@L4.1
Format settings, CABAC                   : Yes
Format settings, ReFrames                : 5 frames
Codec ID                                 : V_MPEG4/ISO/AVC
Duration                                 : 2h 8mn
Bit rate                                 : 2 447 Kbps
Width                                    : 1 280 pixels
Height                                   : 544 pixels
Display aspect ratio                     : 2.35:1
Frame rate mode                          : Constant
Frame rate                               : 23.976 fps
Color space                              : YUV
Chroma subsampling                       : 4:2:0
Bit depth                                : 8 bits
Scan type                                : Progressive
Bits/(Pixel*Frame)                       : 0.147
Stream size                              : 2.14 GiB (73%)
Title                                    : www.club-hd.com
Writing library                          : x264 core 125 r2208 d9d2288
Language                                 : English
Default                                  : Yes
Forced                                   : No
Color primaries                          : BT.709
Transfer characteristics                 : BT.709
Matrix coefficients                      : BT.709

Audio #1
ID                                       : 2
Format                                   : AC-3
Format/Info                              : Audio Coding 3
Mode extension                           : CM (complete main)
Format settings, Endianness              : Big
Codec ID                                 : A_AC3
Duration                                 : 2h 8mn
Bit rate mode                            : Constant
Bit rate                                 : 448 Kbps
Channel(s)                               : 6 channels
Channel positions                        : Front: L C R, Side: L R, LFE
Sampling rate                            : 48.0 KHz
Bit depth                                : 16 bits
Compression mode                         : Lossy
Stream size                              : 411 MiB (14%)
Title                                    : www.club-hd.com  >>  Latino
Language                                 : Spanish
Default                                  : Yes
Forced                                   : No

Audio #2
ID                                       : 3
Format                                   : AC-3
Format/Info                              : Audio Coding 3
Mode extension                           : CM (complete main)
Format settings, Endianness              : Big
Codec ID                                 : A_AC3
Duration                                 : 2h 8mn
Bit rate mode                            : Constant
Bit rate                                 : 384 Kbps
Channel(s)                               : 6 channels
Channel positions                        : Front: L C R, Side: L R, LFE
Sampling rate                            : 48.0 KHz
Bit depth                                : 16 bits
Compression mode                         : Lossy
Stream size                              : 352 MiB (12%)
Title                                    : www.club-hd.com  >>  Inglés
Language                                 : English
Default                                  : No
Forced                                   : No

Text #1
ID                                       : 4
Format                                   : UTF-8
Codec ID                                 : S_TEXT/UTF8
Codec ID/Info                            : UTF-8 Plain Text
Title                                    : Forzados
Language                                 : Spanish
Default                                  : Yes
Forced                                   : No

Text #2
ID                                       : 5
Format                                   : UTF-8
Codec ID                                 : S_TEXT/UTF8
Codec ID/Info                            : UTF-8 Plain Text
Language                                 : Spanish
Default                                  : No
Forced                                   : No

Menu
00:00:00.000                             : en:00:00:00.000
00:04:32.063                             : en:00:04:32.063
00:07:27.781                             : en:00:07:27.781
00:14:17.356                             : en:00:14:17.356
00:17:07.026                             : en:00:17:07.026
00:20:02.910                             : en:00:20:02.910
00:22:54.164                             : en:00:22:54.164
00:26:13.989                             : en:00:26:13.989
00:28:33.211                             : en:00:28:33.211
00:33:54.074                             : en:00:33:54.074
00:40:18.666                             : en:00:40:18.666
00:42:22.707                             : en:00:42:22.707
00:48:34.286                             : en:00:48:34.286
00:50:35.658                             : en:00:50:35.658
00:56:32.848                             : en:00:56:32.848
00:59:31.276                             : en:00:59:31.276
01:04:18.354                             : en:01:04:18.354
01:08:49.167                             : en:01:08:49.167
01:12:30.555                             : en:01:12:30.555
01:18:34.126                             : en:01:18:34.126
01:20:00.129                             : en:01:20:00.129
01:21:55.786                             : en:01:21:55.786
01:25:25.037                             : en:01:25:25.037
01:27:27.784                             : en:01:27:27.784
01:29:38.123                             : en:01:29:38.123
01:36:26.614                             : en:01:36:26.614
01:42:38.486                             : en:01:42:38.486
01:48:46.145                             : en:01:48:46.145
01:50:30.916                             : en:01:50:30.916
01:55:55.949                             : en:01:55:55.949
02:02:34.347                             : en:02:02:34.347
02:04:15.907                             : en:02:04:15.907










Enlaces de Mega y Fireload solo disponibles para Miembros VIP

Compra tu Membresía VIP y apoya a Club-HD!

ATENCIÓN! Tenemos TODO el material de Club-HD disponible por Mega y Fireload, enlaces 100% activos y online hasta la fecha

Llévate tus cuentas Mega PRO II gratis con tu membresía VIP!
Todos los posts vivos con links de Mega y Fireload.
Todo el material de Club-HD desbloqueado y sin publicidad.

Click Aquí para más información.




Enlaces de Mega y Fireload solo disponibles para Miembros VIP

Compra tu Membresía VIP y apoya a Club-HD!

ATENCIÓN! Tenemos TODO el material de Club-HD disponible por Mega y Fireload, enlaces 100% activos y online hasta la fecha

Llévate tus cuentas Mega PRO II gratis con tu membresía VIP!
Todos los posts vivos con links de Mega y Fireload.
Todo el material de Club-HD desbloqueado y sin publicidad.

Click Aquí para más información.


Enlaces de Mega y Fireload solo disponibles para Miembros VIP

Compra tu Membresía VIP y apoya a Club-HD!

ATENCIÓN! Tenemos TODO el material de Club-HD disponible por Mega y Fireload, enlaces 100% activos y online hasta la fecha

Llévate tus cuentas Mega PRO II gratis con tu membresía VIP!
Todos los posts vivos con links de Mega y Fireload.
Todo el material de Club-HD desbloqueado y sin publicidad.

Click Aquí para más información.


Para ver este contenido oculto, debes dar click en una de las siguientes reacciones : Like Like, Love Love, Haha Haha, Wow Wow, Sad Sad, Angry Angry


Para ver este contenido oculto, debes dar click en una de las siguientes reacciones : Like Like, Love Love, Haha Haha, Wow Wow, Sad Sad, Angry Angry
 
Última edición:

georgetwp

Well-known member
Registro
27 Ago 2012
Mensajes
1.761
Reacciones
360
Puntos
83
Edad
31

Reputation:

acababa de agregar los links de la anterior gracias
 

Usuarios Que Están Viendo Este Tema (Total: 1, Miembros: 0, Invitados: 1)

Arriba