James Bond: Tomorrow Never Dies (1997) m-720p Dual Latino-Inglés [Subt. Esp] (Aventura. Acción)

Maestro Revolver

Well-known member
Miembro del Staff
Administrador
Registro
9 Ago 2012
Mensajes
3.569
Reacciones
59.346
Puntos
113

Reputation:









TÍTULO ORIGINAL: Tomorrow Never Dies (James Bond 18)
AÑO: 1997
DURACIÓN: 119 min.
PAÍS: Reino Unido
DIRECTOR: Roger Spottiswoode
GUIÓN: Bruce Feirstein (Personaje: Ian Fleming)
REPARTO: Pierce Brosnan, Michelle Yeoh, Jonathan Pryce, Teri Hatcher, Nuri Mediavilla, Judi Dench, Joe Don Baker, Götz Otto, Desmond Llewelyn, Samantha Bond
PRODUCTORA: Metro-Goldwyn-Mayer
GÉNERO: Aventuras. Acción | James Bond. Espionaje
: http://www.imdb.com/title/tt0120347/






Elliot Carver, un gran magnate de los medios de comunicación, sólo necesita conseguir los derechos de publicación en China para completar su emporio global. Su maquiavélico plan consiste en provocar una guerra entre Gran Bretaña y China, mediante el hundimiento de un buque de guerra inglés. James Bond emprenderá una misión contrarreloj para descubrir quién está detrás del peligroso incidente.
























La pelicula NO tiene ninguna marca... solo colocamos el nombre de esta web en las capturas






Código:
General
Format                                   : Matroska
Format version                           : Version 2
File size                                : 2.72 GiB
Duration                                 : 1h 59mn
Overall bit rate                         : 3 259 Kbps
Movie name                               : www.club-hd.com
Encoded date                             : UTC 2012-12-25 19:09:57
Writing application                      : mkvmerge v5.7.0 ('The Whirlwind') built on Jul  8 2012 20:08:51
Writing library                          : libebml v1.2.3 + libmatroska v1.3.0

Video
ID                                       : 1
Format                                   : AVC
Format/Info                              : Advanced Video Codec
Format profile                           : High@L4.1
Format settings, CABAC                   : Yes
Format settings, ReFrames                : 5 frames
Codec ID                                 : V_MPEG4/ISO/AVC
Duration                                 : 1h 59mn
Bit rate                                 : 2 426 Kbps
Width                                    : 1 280 pixels
Height                                   : 544 pixels
Display aspect ratio                     : 2.35:1
Frame rate mode                          : Constant
Frame rate                               : 23.976 fps
Color space                              : YUV
Chroma subsampling                       : 4:2:0
Bit depth                                : 8 bits
Scan type                                : Progressive
Bits/(Pixel*Frame)                       : 0.145
Stream size                              : 1.97 GiB (72%)
Title                                    : www.club-hd.com
Writing library                          : x264 core 125 r2208 d9d2288
Language                                 : English
Default                                  : Yes
Forced                                   : No
Color primaries                          : BT.709
Transfer characteristics                 : BT.709
Matrix coefficients                      : BT.709

Audio #1
ID                                       : 2
Format                                   : AC-3
Format/Info                              : Audio Coding 3
Mode extension                           : CM (complete main)
Format settings, Endianness              : Big
Codec ID                                 : A_AC3
Duration                                 : 1h 59mn
Bit rate mode                            : Constant
Bit rate                                 : 448 Kbps
Channel(s)                               : 6 channels
Channel positions                        : Front: L C R, Side: L R, LFE
Sampling rate                            : 48.0 KHz
Bit depth                                : 16 bits
Compression mode                         : Lossy
Stream size                              : 382 MiB (14%)
Title                                    : www.club-hd.com  >>  Latino
Language                                 : Spanish
Default                                  : Yes
Forced                                   : No

Audio #2
ID                                       : 3
Format                                   : AC-3
Format/Info                              : Audio Coding 3
Mode extension                           : CM (complete main)
Format settings, Endianness              : Big
Codec ID                                 : A_AC3
Duration                                 : 1h 59mn
Bit rate mode                            : Constant
Bit rate                                 : 384 Kbps
Channel(s)                               : 6 channels
Channel positions                        : Front: L C R, Side: L R, LFE
Sampling rate                            : 48.0 KHz
Bit depth                                : 16 bits
Compression mode                         : Lossy
Stream size                              : 328 MiB (12%)
Title                                    : www.club-hd.com  >>  Inglés
Language                                 : English
Default                                  : No
Forced                                   : No

Text
ID                                       : 4
Format                                   : UTF-8
Codec ID                                 : S_TEXT/UTF8
Codec ID/Info                            : UTF-8 Plain Text
Language                                 : Spanish
Default                                  : No
Forced                                   : No

Menu
00:00:00.000                             : en:00:00:00.000
00:04:34.316                             : en:00:04:34.316
00:06:36.646                             : en:00:06:36.646
00:09:37.285                             : en:00:09:37.285
00:12:37.131                             : en:00:12:37.131
00:15:01.400                             : en:00:15:01.400
00:20:09.875                             : en:00:20:09.875
00:22:10.371                             : en:00:22:10.371
00:27:31.233                             : en:00:27:31.233
00:30:34.916                             : en:00:30:34.916
00:32:23.608                             : en:00:32:23.608
00:36:29.521                             : en:00:36:29.521
00:39:19.607                             : en:00:39:19.607
00:42:09.777                             : en:00:42:09.777
00:47:14.290                             : en:00:47:14.290
00:50:22.686                             : en:00:50:22.686
00:53:23.700                             : en:00:53:23.700
00:59:32.068                             : en:00:59:32.068
01:03:39.315                             : en:01:03:39.315
01:12:01.526                             : en:01:12:01.526
01:15:09.714                             : en:01:15:09.714
01:16:43.224                             : en:01:16:43.224
01:17:53.711                             : en:01:17:53.711
01:24:22.349                             : en:01:24:22.349
01:26:15.587                             : en:01:26:15.587
01:29:08.051                             : en:01:29:08.051
01:31:17.222                             : en:01:31:17.222
01:34:20.989                             : en:01:34:20.989
01:38:35.660                             : en:01:38:35.660
01:43:46.178                             : en:01:43:46.178
01:48:43.225                             : en:01:48:43.225
01:55:22.707                             : en:01:55:22.707









Enlaces de Mega y Fireload solo disponibles para Miembros VIP

Compra tu Membresía VIP y apoya a Club-HD!

ATENCIÓN! Tenemos TODO el material de Club-HD disponible por Mega y Fireload, enlaces 100% activos y online hasta la fecha

Llévate tus cuentas Mega PRO II gratis con tu membresía VIP!
Todos los posts vivos con links de Mega y Fireload.
Todo el material de Club-HD desbloqueado y sin publicidad.

Click Aquí para más información.



Enlaces de Mega y Fireload solo disponibles para Miembros VIP

Compra tu Membresía VIP y apoya a Club-HD!

ATENCIÓN! Tenemos TODO el material de Club-HD disponible por Mega y Fireload, enlaces 100% activos y online hasta la fecha

Llévate tus cuentas Mega PRO II gratis con tu membresía VIP!
Todos los posts vivos con links de Mega y Fireload.
Todo el material de Club-HD desbloqueado y sin publicidad.

Click Aquí para más información.


Enlaces de Mega y Fireload solo disponibles para Miembros VIP

Compra tu Membresía VIP y apoya a Club-HD!

ATENCIÓN! Tenemos TODO el material de Club-HD disponible por Mega y Fireload, enlaces 100% activos y online hasta la fecha

Llévate tus cuentas Mega PRO II gratis con tu membresía VIP!
Todos los posts vivos con links de Mega y Fireload.
Todo el material de Club-HD desbloqueado y sin publicidad.

Click Aquí para más información.


Para ver este contenido oculto, debes dar click en una de las siguientes reacciones : Like Like, Love Love, Haha Haha, Wow Wow, Sad Sad, Angry Angry


Para ver este contenido oculto, debes dar click en una de las siguientes reacciones : Like Like, Love Love, Haha Haha, Wow Wow, Sad Sad, Angry Angry
 
Última edición:

georgetwp

Well-known member
Registro
27 Ago 2012
Mensajes
1.761
Reacciones
360
Puntos
83
Edad
31

Reputation:

Excelente una mas para la colección ya casi terminamos
 

Usuarios Que Están Viendo Este Tema (Total: 1, Miembros: 0, Invitados: 1)

Arriba