James Bond: You Only Live Twice (1967) m-720p Dual Latino-Inglés [Subt. Esp] (Aventura. Acción)

Maestro Revolver

Administrador
Registro
9 Ago 2012
Mensajes
3.157
Reacciones (ptje)
55.034


You-Only-Live-Twice.jpg




FICHA_TECNICA.png


TÍTULO ORIGINAL: You Only Live Twice (James Bond 5)
AÑO: 1967
DURACIÓN: 117 min.
PAÍS: Reino Unido
DIRECTOR: Lewis Gilbert
GUIÓN: Harold Jack Bloom & Roald Dahl (Personaje: Ian Fleming)
REPARTO: Sean Connery, Donald Pleasence, Akiko Wakabayashi, Tetsuro Tamba, Mie Hama, Karin Dor, Lois Maxwell, Desmond Llewelyn, Charles Gray, Tsai Chin, Bernard Lee, Alexander Knox
PRODUCTORA: MGM / UA
GÉNERO: Aventuras. Acción | James Bond. Espionaje
imdb-logo.png
: http://www.imdb.com/title/tt0062512/



SINOPSIS.png


Dos naves espaciales, una norteamericana y otra rusa, han sido secuestradas en la órbita terrestre. Sólo la intervención del Agente 007 (Sean Connery) podrá evitar una guerra nuclear entre las dos superpotencias. Su misión consistirá en viajar hasta Japón y desenmascarar a la peligrosa organización Spectra y a su diabólico líder, Ernest Stavro Blofeld (Donald Pleasence).




TRAILER.png






CAPTURAS.png


1.jpg


2.jpg


3.jpg


4.jpg


5.jpg


6.jpg


La pelicula NO tiene ninguna marca... solo colocamos el nombre de esta web en las capturas




DATOS_TECNICOS.png


Código:
General
Format                                   : Matroska
Format version                           : Version 2
File size                                : 2.71 GiB
Duration                                 : 1h 56mn
Overall bit rate                         : 3 318 Kbps
Movie name                               : www.club-hd.com
Encoded date                             : UTC 2012-11-17 08:55:08
Writing application                      : mkvmerge v5.7.0 ('The Whirlwind') built on Jul  8 2012 20:08:51
Writing library                          : libebml v1.2.3 + libmatroska v1.3.0

Video
ID                                       : 1
Format                                   : AVC
Format/Info                              : Advanced Video Codec
Format profile                           : [email protected]
Format settings, CABAC                   : Yes
Format settings, ReFrames                : 5 frames
Codec ID                                 : V_MPEG4/ISO/AVC
Duration                                 : 1h 56mn
Bit rate                                 : 2 484 Kbps
Width                                    : 1 280 pixels
Height                                   : 544 pixels
Display aspect ratio                     : 2.35:1
Frame rate mode                          : Constant
Frame rate                               : 23.976 fps
Color space                              : YUV
Chroma subsampling                       : 4:2:0
Bit depth                                : 8 bits
Scan type                                : Progressive
Bits/(Pixel*Frame)                       : 0.149
Stream size                              : 1.98 GiB (73%)
Title                                    : www.club-hd.com
Writing library                          : x264 core 125 r2208 d9d2288
Language                                 : English
Default                                  : Yes
Forced                                   : No
Color primaries                          : BT.709
Transfer characteristics                 : BT.709
Matrix coefficients                      : BT.709

Audio #1
ID                                       : 2
Format                                   : AC-3
Format/Info                              : Audio Coding 3
Mode extension                           : CM (complete main)
Format settings, Endianness              : Big
Codec ID                                 : A_AC3
Duration                                 : 1h 56mn
Bit rate mode                            : Constant
Bit rate                                 : 448 Kbps
Channel(s)                               : 6 channels
Channel positions                        : Front: L C R, Side: L R, LFE
Sampling rate                            : 48.0 KHz
Bit depth                                : 16 bits
Compression mode                         : Lossy
Stream size                              : 375 MiB (14%)
Title                                    : www.club-hd.com  >>  Latino
Language                                 : Spanish
Default                                  : Yes
Forced                                   : No

Audio #2
ID                                       : 3
Format                                   : AC-3
Format/Info                              : Audio Coding 3
Mode extension                           : CM (complete main)
Format settings, Endianness              : Big
Codec ID                                 : A_AC3
Duration                                 : 1h 56mn
Bit rate mode                            : Constant
Bit rate                                 : 384 Kbps
Channel(s)                               : 6 channels
Channel positions                        : Front: L C R, Side: L R, LFE
Sampling rate                            : 48.0 KHz
Bit depth                                : 16 bits
Compression mode                         : Lossy
Stream size                              : 321 MiB (12%)
Title                                    : www.club-hd.com  >>  Inglés
Language                                 : English
Default                                  : No
Forced                                   : No

Text
ID                                       : 4
Format                                   : UTF-8
Codec ID                                 : S_TEXT/UTF8
Codec ID/Info                            : UTF-8 Plain Text
Language                                 : Spanish
Default                                  : No
Forced                                   : No

Menu
00:00:00.000                             : en:00:00:00.000
00:05:02.093                             : en:00:05:02.093
00:06:10.537                             : en:00:06:10.537
00:08:54.075                             : en:00:08:54.075
00:11:49.375                             : en:00:11:49.375
00:15:23.089                             : en:00:15:23.089
00:19:25.915                             : en:00:19:25.915
00:24:18.916                             : en:00:24:18.916
00:28:19.656                             : en:00:28:19.656
00:31:28.720                             : en:00:31:28.720
00:33:09.112                             : en:00:33:09.112
00:36:14.589                             : en:00:36:14.589
00:40:48.071                             : en:00:40:48.071
00:44:17.822                             : en:00:44:17.822
00:46:59.817                             : en:00:46:59.817
00:51:13.779                             : en:00:51:13.779
00:54:37.274                             : en:00:54:37.274
00:58:58.702                             : en:00:58:58.702
01:03:27.846                             : en:01:03:27.846
01:09:01.971                             : en:01:09:01.971
01:12:26.717                             : en:01:12:26.717
01:14:07.068                             : en:01:14:07.068
01:17:33.649                             : en:01:17:33.649
01:20:25.904                             : en:01:20:25.904
01:24:25.686                             : en:01:24:25.686
01:28:42.734                             : en:01:28:42.734
01:34:54.647                             : en:01:34:54.647
01:35:49.994                             : en:01:35:49.994
01:38:13.179                             : en:01:38:13.179
01:44:26.302                             : en:01:44:26.302
01:48:19.535                             : en:01:48:19.535
01:53:25.507                             : en:01:53:25.507




Descarga.png




google-drive-vip.png


Tenemos TODO el material de Club-HD disponible por Mega, enlaces 100% activos y online hasta la fecha

Llévate tus cuentas Mega PRO III gratis con tu membresía VIP!
Todos los posts vivos con links de Mega.
Todo el material de Club-HD desbloqueado y sin publicidad.

Obtén más información sobre nuestras Membresías VIP




MEGA.jpg

Tenemos TODO el material de Club-HD disponible por Mega, enlaces 100% activos y online hasta la fecha

Llévate tus cuentas Mega PRO III gratis con tu membresía VIP!
Todos los posts vivos con links de Mega.
Todo el material de Club-HD desbloqueado y sin publicidad.

Obtén más información sobre nuestras Membresías VIP



1FICHIER-VIP.png

Tenemos TODO el material de Club-HD disponible por Mega, enlaces 100% activos y online hasta la fecha

Llévate tus cuentas Mega PRO III gratis con tu membresía VIP!
Todos los posts vivos con links de Mega.
Todo el material de Club-HD desbloqueado y sin publicidad.

Obtén más información sobre nuestras Membresías VIP


UPLOADED.TO_BANNER.png

Para ver este contenido oculto, debes dar click en el botón"Like", o cualquiera de las otras reacciones:

Me Gusta Me Gusta, Me Encanta Me Encanta, Jaja Jaja, Wow Wow, Triste Triste, Molesto Molesto


OPENLOAD.png

Para ver este contenido oculto, debes dar click en el botón"Like", o cualquiera de las otras reacciones:

Me Gusta Me Gusta, Me Encanta Me Encanta, Jaja Jaja, Wow Wow, Triste Triste, Molesto Molesto
 
Última edición por un moderador:
gracias por otro de oo7 se esta completando la saga poco a poco gracias revolver21 por tremendo clasico a esperar nuvas publicaciones saludos
 
Maestro gracias por estos aportes exclusivos de club hd, 0 y van 5 vamos por las 23
 
Volver