Jaws (1975) m-1080p BDRip Dual Latino-Inglés [Subt. Esp] (Terror. Drama)

Maestro Revolver

Administrador
Registro
9 Ago 2012
Mensajes
3.157
Reacciones (ptje)
54.925


Jaws.jpg




FichaTecnica.jpg


TÍTULO ORIGINAL: Jaws
AÑO: 1975
DURACIÓN: 124 min.
PAÍS: USA
DIRECTOR: Steven Spielberg
GUIÓN: Peter Benchley, Carl Gottlieb (Novela: Peter Bentchley)
REPARTO: Roy Scheider, Robert Shaw, Richard Dreyfuss, Lorraine Gary, Murray Hamilton, Carl Gottlieb, Jeffrey C. Kramer
PRODUCTORA: Universal Pictures presents a Zanuck/Brown Production
GÉNERO: Terror. Drama | Animales. Tiburones. Película de culto
imdb-logo.png
: http://www.imdb.com/title/tt0073195/

Premios: 1975: 3 premios Oscar: Montaje, Música, Sonido. Nominada a mejor Película.
1975: Globo de Oro: Música. Nominada a Drama, Director y Guión.
1975: Premio BAFTA: Música. 6 nominaciones incluyendo Película, Director y Actor.



Sinopsis.jpg


En las aguas de un pequeño pueblo costero del Este de Estados Unidos, un enorme tiburón ataca a varias personas. Por temor a las repercusiones que este incidente podría tener sobre el negocio turístico, el alcalde se niega a cerrar las playas y a difundir la noticia. Pero un nuevo ataque del tiburón, en la propia playa, termina con la vida de un bañista. El terror se apodera entonces de todos; así que un veterano cazador de tiburones, un científico y el jefe de la policía local se unen para capturar al escualo.




Trailer.jpg






Capturas.jpg


1.jpg


2.jpg


3.jpg


4.jpg


5.jpg


6.jpg


La pelicula NO tiene ninguna marca... solo colocamos el nombre de esta web en las capturas




MediaInfo.jpg


Código:
General
Format                                   : Matroska
Format version                           : Version 2
File size                                : 5.02 GiB
Duration                                 : 2h 4mn
Overall bit rate                         : 5 796 Kbps
Movie name                               : www.club-hd.com
Encoded date                             : UTC 2013-09-13 00:44:57
Writing application                      : mkvmerge v5.7.0 ('The Whirlwind') built on Jul  8 2012 20:08:51
Writing library                          : libebml v1.2.3 + libmatroska v1.3.0

Video
ID                                       : 1
Format                                   : AVC
Format/Info                              : Advanced Video Codec
Format profile                           : [email protected]
Format settings, CABAC                   : Yes
Format settings, ReFrames                : 4 frames
Codec ID                                 : V_MPEG4/ISO/AVC
Duration                                 : 2h 4mn
Bit rate                                 : 4 500 Kbps
Width                                    : 1 920 pixels
Height                                   : 1 080 pixels
Display aspect ratio                     : 16:9
Frame rate mode                          : Constant
Frame rate                               : 23.976 fps
Color space                              : YUV
Chroma subsampling                       : 4:2:0
Bit depth                                : 8 bits
Scan type                                : Progressive
Bits/(Pixel*Frame)                       : 0.091
Stream size                              : 3.81 GiB (76%)
Title                                    : www.club-hd.com
Writing library                          : x264 core 112
Language                                 : English
Default                                  : Yes
Forced                                   : No
Color primaries                          : BT.709
Transfer characteristics                 : BT.709
Matrix coefficients                      : BT.709

Audio #1
ID                                       : 2
Format                                   : AC-3
Format/Info                              : Audio Coding 3
Mode extension                           : CM (complete main)
Format settings, Endianness              : Big
Codec ID                                 : A_AC3
Duration                                 : 2h 4mn
Bit rate mode                            : Constant
Bit rate                                 : 640 Kbps
Channel(s)                               : 6 channels
Channel positions                        : Front: L C R, Side: L R, LFE
Sampling rate                            : 48.0 KHz
Bit depth                                : 16 bits
Compression mode                         : Lossy
Stream size                              : 568 MiB (11%)
Title                                    : www.club-hd.com  >>  Latino
Language                                 : Spanish
Default                                  : Yes
Forced                                   : No

Audio #2
ID                                       : 3
Format                                   : AC-3
Format/Info                              : Audio Coding 3
Mode extension                           : CM (complete main)
Format settings, Endianness              : Big
Codec ID                                 : A_AC3
Duration                                 : 2h 4mn
Bit rate mode                            : Constant
Bit rate                                 : 640 Kbps
Channel(s)                               : 6 channels
Channel positions                        : Front: L C R, Side: L R, LFE
Sampling rate                            : 48.0 KHz
Bit depth                                : 16 bits
Compression mode                         : Lossy
Stream size                              : 568 MiB (11%)
Title                                    : www.club-hd.com  >>  Inglés
Language                                 : English
Default                                  : No
Forced                                   : No

Text
ID                                       : 4
Format                                   : UTF-8
Codec ID                                 : S_TEXT/UTF8
Codec ID/Info                            : UTF-8 Plain Text
Language                                 : Spanish
Default                                  : No
Forced                                   : No

Menu
00:00:00.000                             : en:Chapter 1
00:01:49.025                             : en:Chapter 2
00:07:33.786                             : en:Chapter 3
00:11:20.179                             : en:Chapter 4
00:13:35.439                             : en:Chapter 5
00:18:11.590                             : en:Chapter 6
00:24:30.343                             : en:Chapter 7
00:27:41.242                             : en:Chapter 8
00:32:46.798                             : en:Chapter 9
00:45:18.006                             : en:Chapter 10
00:53:31.166                             : en:Chapter 11
01:01:28.768                             : en:Chapter 12
01:06:11.884                             : en:Chapter 13
01:21:03.191                             : en:Chapter 14
01:26:25.096                             : en:Chapter 15
01:36:24.236                             : en:Chapter 16
01:50:00.802                             : en:Chapter 17
01:56:47.166                             : en:Chapter 18
01:57:52.356                             : en:Chapter 19
02:02:35.681                             : en:Chapter 20




Descarga.jpg



MEGA.jpg

Tenemos TODO el material de Club-HD disponible por Mega, enlaces 100% activos y online hasta la fecha

Llévate tus cuentas Mega PRO III gratis con tu membresía VIP!
Todos los posts vivos con links de Mega.
Todo el material de Club-HD desbloqueado y sin publicidad.

Obtén más información sobre nuestras Membresías VIP



VIP_H.jpg


Tenemos TODO el material de Club-HD disponible por Mega, enlaces 100% activos y online hasta la fecha

Llévate tus cuentas Mega PRO III gratis con tu membresía VIP!
Todos los posts vivos con links de Mega.
Todo el material de Club-HD desbloqueado y sin publicidad.

Obtén más información sobre nuestras Membresías VIP



UPLOADED_BANNER.png

Para ver este contenido oculto, debes dar click en el botón"Like", o cualquiera de las otras reacciones:

Me Gusta Me Gusta, Me Encanta Me Encanta, Jaja Jaja, Wow Wow, Triste Triste, Molesto Molesto
 
Última edición por un moderador:
Volver