Jobs (2013) 720p BDRip Audio Inglés [Subt. Esp] (Drama)

Maestro Revolver

Well-known member
Miembro del Staff
Administrador
Registro
9 Ago 2012
Mensajes
3.567








TÍTULO ORIGINAL: jOBS
AÑO: 2013
DURACIÓN: 122 min.
PAÍS: USA
DIRECTOR: Joshua Michael Stern
GUIÓN: Matt Whiteley
REPARTO: Ashton Kutcher, Dermot Mulroney, Josh Gad, Matthew Modine, James Woods, Amanda Crew, J.K. Simmons, Lesley Ann Warren, Lukas Haas, Ron Eldard, Ronnie Gene Blevins, Ahna O'Reilly
PRODUCTORA: Open Road Films / Five Star Institute
GÉNERO: Drama | Biográfico. Internet/Informática. Años 70. Años 80
: http://www.imdb.com/title/tt2357129/






Biografía de Steve Jobs (1955-2011), el emprendedor más importante de los Estados Unidos y cofundador de Apple, que se centra sobre todo en sus primeros años como creador y empresario. Sólo se necesita una persona para empezar una revolución. La película cuenta la épica y turbulenta historia de Jobs mientras abría un camino que cambió la tecnología -y el mundo- para siempre.
























La pelicula NO tiene ninguna marca... solo colocamos el nombre de esta web en las capturas






Código:
General
Format                                   : Matroska
Format version                           : Version 2
File size                                : 3.88 GiB
Duration                                 : 2h 2mn
Overall bit rate                         : 4 547 Kbps
Movie name                               : www.club-hd.com
Encoded date                             : UTC 2013-11-12 01:51:43
Writing application                      : mkvmerge v5.7.0 ('The Whirlwind') built on Jul  8 2012 20:08:51
Writing library                          : libebml v1.2.3 + libmatroska v1.3.0

Video
ID                                       : 1
Format                                   : AVC
Format/Info                              : Advanced Video Codec
Format profile                           : High@L4.1
Format settings, CABAC                   : Yes
Format settings, ReFrames                : 8 frames
Codec ID                                 : V_MPEG4/ISO/AVC
Duration                                 : 2h 2mn
Bit rate                                 : 4 008 Kbps
Width                                    : 1 280 pixels
Height                                   : 536 pixels
Display aspect ratio                     : 2.40:1
Frame rate mode                          : Constant
Frame rate                               : 25.000 fps
Color space                              : YUV
Chroma subsampling                       : 4:2:0
Bit depth                                : 8 bits
Scan type                                : Progressive
Bits/(Pixel*Frame)                       : 0.234
Stream size                              : 3.42 GiB (88%)
Title                                    : www.club-hd.com
Writing library                          : x264 core 116 r2074 2641b9e
Language                                 : English
Default                                  : Yes
Forced                                   : No

Audio
ID                                       : 2
Format                                   : AC-3
Format/Info                              : Audio Coding 3
Mode extension                           : CM (complete main)
Format settings, Endianness              : Big
Codec ID                                 : A_AC3
Duration                                 : 2h 2mn
Bit rate mode                            : Constant
Bit rate                                 : 448 Kbps
Channel(s)                               : 6 channels
Channel positions                        : Front: L C R, Side: L R, LFE
Sampling rate                            : 48.0 KHz
Bit depth                                : 16 bits
Compression mode                         : Lossy
Delay relative to video                  : 1s 720ms
Stream size                              : 392 MiB (10%)
Title                                    : www.club-hd.com
Language                                 : English
Default                                  : Yes
Forced                                   : No

Text
ID                                       : 3
Format                                   : UTF-8
Codec ID                                 : S_TEXT/UTF8
Codec ID/Info                            : UTF-8 Plain Text
Language                                 : Spanish
Default                                  : Yes
Forced                                   : No








Enlaces de Mega y Google Drive solo disponibles para Miembros VIP

Compra tu Membresía VIP y apoya a Club-HD!

ATENCIÓN! Tenemos TODO el material de Club-HD disponible por Mega y Google Drive, enlaces 100% activos y online hasta la fecha

Llévate tus cuentas Mega PRO III gratis con tu membresía VIP!
Todos los posts vivos con links de Mega y Google Drive.
Todo el material de Club-HD desbloqueado y sin publicidad.

Click Aquí para más información.



Para ver este contenido oculto, debes dar click en una de las siguientes reacciones : Like Like, Love Love, Haha Haha, Wow Wow, Sad Sad, Angry Angry
 
Última edición por un moderador:

Usuarios Que Están Viendo Este Tema (Total: 1, Miembros: 0, Invitados: 1)

Quién Leyó Este Tema (Total Miembros: 4)

Arriba