John Carter (2012) 3D H-SBS 1080p BDRip Dual Latino-Inglés [Subt. Esp-Ing] (Ciencia ficción)

Maestro Revolver

Well-known member
Miembro del Staff
Administrador
Registro
9 Ago 2012
Mensajes
3.569
Reacciones
59.341
Puntos
113

Reputation:


Aporte Recuperado gracias a nuestros amigos Leo-Peru y sharklui







TÍTULO ORIGINAL: John Carter (John Carter of Mars)
AÑO: 2012
DURACIÓN: 132 min.
PAÍS: Estados Unidos
DIRECTOR: Andrew Stanton
GUIÓN: Michael Chabon, Andrew Stanton, Mark Andrews (Novela: Edgar Rice Burroughs)
REPARTO: Taylor Kitsch, Lynn Collins, Willem Dafoe, Bryan Cranston, Mark Strong, Thomas Haden Church, Samantha Morton, Ciarán Hinds, Dominic West, Polly Walker, James Purefoy, Jonathan Hyde, Daryl Sabara
PRODUCTORA: Walt Disney Pictures
GÉNERO: Ciencia ficción. Fantástico. Aventuras | Extraterrestres. Siglo XIX
http://www.imdb.com/title/tt0401729/






Una aventura de acción espectacular, ambientada en el misterioso y exótico planeta Barsoom (Marte). JOHN CARTER está basada en una clásica novela de Edgar Rice Burroughs. El film narra la historia de un veterano de guerra, ex militar capitán John Carter (Taylor Kitsch), quien inexplicablemente es transportado hasta Marte donde, pese a su reticencia, se verá inmerso en un conflicto de proporciones épicas con los habitantes del planeta, entre los que se encuentran Tars Tarkas (Willem Dafoe) y la cautivante Princesa Dejah Thoris (Lynn Collins). En un mundo al borde del colapso, Carter redescubrirá su humanidad al advertir que la supervivencia de Barsoom y su gente está en sus manos.
























La pelicula NO tiene ninguna marca... solo colocamos el nombre de esta web en las capturas






Código:
General
Format                           : Matroska
Format version                   : Version 2
File size                        : 10.9 GiB
Duration                         : 2h 12mn
Overall bit rate mode            : Variable
Overall bit rate                 : 11.8 Mbps
Movie name                       : www.club-hd.com
Encoded date                     : UTC 2012-10-24 02:07:41
Writing application              : mkvmerge v5.7.0 ('The Whirlwind') built on Jul  8 2012 20:08:51
Writing library                  : libebml v1.2.3 + libmatroska v1.3.0

Video
ID                               : 1
Format                           : AVC
Format/Info                      : Advanced Video Codec
Format profile                   : High@L4.0
Format settings, CABAC           : Yes
Format settings, ReFrames        : 2 frames
Format settings, GOP             : M=3, N=15
Codec ID                         : V_MPEG4/ISO/AVC
Duration                         : 2h 12mn
Bit rate mode                    : Variable
Bit rate                         : 8 820 Kbps
Maximum bit rate                 : 13.6 Mbps
Width                            : 1 920 pixels
Height                           : 800 pixels
Display aspect ratio             : 2.40:1
Frame rate                       : 23.976 fps
Color space                      : YUV
Chroma subsampling               : 4:2:0
Bit depth                        : 8 bits
Scan type                        : Progressive
Bits/(Pixel*Frame)               : 0.239
Stream size                      : 8.13 GiB (74%)
Title                            : www.club-hd.com
Language                         : English
Default                          : Yes
Forced                           : No

Audio #1
ID                               : 2
Format                           : AC-3
Format/Info                      : Audio Coding 3
Mode extension                   : CM (complete main)
Codec ID                         : A_AC3
Duration                         : 2h 12mn
Bit rate mode                    : Constant
Bit rate                         : 640 Kbps
Channel(s)                       : 6 channels
Channel positions                : Front: L C R, Side: L R, LFE
Sampling rate                    : 48.0 KHz
Bit depth                        : 16 bits
Compression mode                 : Lossy
Stream size                      : 604 MiB (5%)
Title                            : www.club-hd.com  >>  Latino  AC3 5.1
Language                         : Spanish
Default                          : Yes
Forced                           : No

Audio #2
ID                               : 3
Format                           : AC-3
Format/Info                      : Audio Coding 3
Mode extension                   : CM (complete main)
Codec ID                         : A_AC3
Duration                         : 2h 12mn
Bit rate mode                    : Constant
Bit rate                         : 640 Kbps
Channel(s)                       : 6 channels
Channel positions                : Front: L C R, Side: L R, LFE
Sampling rate                    : 48.0 KHz
Bit depth                        : 16 bits
Compression mode                 : Lossy
Stream size                      : 604 MiB (5%)
Title                            : www.club-hd.com  >>  Inglés AC3 5.1
Language                         : English
Default                          : No
Forced                           : No

Audio #3
ID                               : 4
Format                           : DTS
Format/Info                      : Digital Theater Systems
Codec ID                         : A_DTS
Duration                         : 2h 12mn
Bit rate mode                    : Constant
Bit rate                         : 1 510 Kbps
Channel(s)                       : 6 channels
Channel positions                : Front: L C R, Side: L R, LFE
Sampling rate                    : 48.0 KHz
Bit depth                        : 24 bits
Compression mode                 : Lossy
Delay relative to video          : 11ms
Stream size                      : 1.39 GiB (13%)
Title                            : www.club-hd.com  >>  Inglés DTS 5.1
Language                         : English
Default                          : No
Forced                           : No

Text #1
ID                               : 5
Format                           : UTF-8
Codec ID                         : S_TEXT/UTF8
Codec ID/Info                    : UTF-8 Plain Text
Title                            : Forzados
Language                         : Spanish
Default                          : Yes
Forced                           : No

Text #2
ID                               : 6
Format                           : UTF-8
Codec ID                         : S_TEXT/UTF8
Codec ID/Info                    : UTF-8 Plain Text
Language                         : Spanish
Default                          : No
Forced                           : No

Text #3
ID                               : 7
Format                           : UTF-8
Codec ID                         : S_TEXT/UTF8
Codec ID/Info                    : UTF-8 Plain Text
Language                         : English
Default                          : No
Forced                           : No







Código:
www.club-hd.com[/CENTER]





Links Intercambiables





Enlaces de Mega y Fireload solo disponibles para Miembros VIP

Compra tu Membresía VIP y apoya a Club-HD!

ATENCIÓN! Tenemos TODO el material de Club-HD disponible por Mega y Fireload, enlaces 100% activos y online hasta la fecha

Llévate tus cuentas Mega PRO II gratis con tu membresía VIP!
Todos los posts vivos con links de Mega y Fireload.
Todo el material de Club-HD desbloqueado y sin publicidad.

Click Aquí para más información.






Enlaces de Mega y Fireload solo disponibles para Miembros VIP

Compra tu Membresía VIP y apoya a Club-HD!

ATENCIÓN! Tenemos TODO el material de Club-HD disponible por Mega y Fireload, enlaces 100% activos y online hasta la fecha

Llévate tus cuentas Mega PRO II gratis con tu membresía VIP!
Todos los posts vivos con links de Mega y Fireload.
Todo el material de Club-HD desbloqueado y sin publicidad.

Click Aquí para más información.



Para ver este contenido oculto, debes dar click en una de las siguientes reacciones : Like Like, Love Love, Haha Haha, Wow Wow, Sad Sad, Angry Angry



 
Última edición:

Yonatan

Admin
Miembro del Staff
Administrador
Registro
27 Ago 2012
Mensajes
1.768
Reacciones
3.728
Puntos
113
Edad
28
Ubicación
Chile, Sexta Región

Reputation:

:OHHH::OHHH: creo que la tendre lista para descargarla cuando tenga mi led 3D, gran aportaso revolver :dplgar:
 

gpinzon2

New member
Registro
24 Oct 2012
Mensajes
14
Reacciones
0
Puntos
0
Edad
47

Reputation:

buena esa

ME ha encantado que pongas pelis 3d gracias
 

n0e_Cg

New member
Registro
28 Ago 2012
Mensajes
537
Reacciones
42
Puntos
0
Edad
34

Reputation:

gracias por elap0rtaz0 ke wena 0nda Desc_g_
 

Usuarios Que Están Viendo Este Tema (Total: 1, Miembros: 0, Invitados: 1)

Arriba