John Carter (2012) 3D H-SBS 1080p BDRip Dual Latino-Inglés [Subt. Esp-Ing] (Ciencia ficción)

Maestro Revolver

Administrador
Registro
9 Ago 2012
Mensajes
3.157
Reacciones (ptje)
55.034

John-Carter-3D.jpg




FICHA_TECNICA.png


TÍTULO ORIGINAL: John Carter (John Carter of Mars)
AÑO: 2012
DURACIÓN: 132 min.
PAÍS: Estados Unidos
DIRECTOR: Andrew Stanton
GUIÓN: Michael Chabon, Andrew Stanton, Mark Andrews (Novela: Edgar Rice Burroughs)
REPARTO: Taylor Kitsch, Lynn Collins, Willem Dafoe, Bryan Cranston, Mark Strong, Thomas Haden Church, Samantha Morton, Ciarán Hinds, Dominic West, Polly Walker, James Purefoy, Jonathan Hyde, Daryl Sabara
PRODUCTORA: Walt Disney Pictures
GÉNERO: Ciencia ficción. Fantástico. Aventuras | Extraterrestres. Siglo XIX
imdb-logo.png
http://www.imdb.com/title/tt0401729/




SINOPSIS.png


Una aventura de acción espectacular, ambientada en el misterioso y exótico planeta Barsoom (Marte). JOHN CARTER está basada en una clásica novela de Edgar Rice Burroughs. El film narra la historia de un veterano de guerra, ex militar capitán John Carter (Taylor Kitsch), quien inexplicablemente es transportado hasta Marte donde, pese a su reticencia, se verá inmerso en un conflicto de proporciones épicas con los habitantes del planeta, entre los que se encuentran Tars Tarkas (Willem Dafoe) y la cautivante Princesa Dejah Thoris (Lynn Collins). En un mundo al borde del colapso, Carter redescubrirá su humanidad al advertir que la supervivencia de Barsoom y su gente está en sus manos.




TRAILER.png






CAPTURAS.png


1.jpg


2.jpg


3.jpg


4.jpg


5.jpg


6.jpg


La pelicula NO tiene ninguna marca... solo colocamos el nombre de esta web en las capturas




DATOS_TECNICOS.png


Código:
General
Format                      : Matroska
Format version              : Version 4
File size                   : 10.9 GiB
Duration                    : 2 h 12 min
Overall bit rate mode       : Variable
Overall bit rate            : 11.9 Mb/s
Movie name                  : John Carter (2012) 3D 1080p Dual
Encoded date                : UTC 2017-05-12 00:48:27
Writing application         : mkvmerge v8.5.2 ('Crosses') 64bit
Writing library             : libebml v1.3.3 + libmatroska v1.4.4

Video
ID                          : 1
Format                      : AVC
Format/Info                 : Advanced Video Codec
Format profile              : High@L4
Format settings             : CABAC / 2 Ref Frames
Format settings, CABAC      : Yes
Format settings, Reference  : 2 frames
Format settings, GOP        : M=3, N=15
Codec ID                    : V_MPEG4/ISO/AVC
Duration                    : 2 h 12 min
Bit rate mode               : Variable
Bit rate                    : 9 054 kb/s
Maximum bit rate            : 13.6 Mb/s
Width                       : 1 920 pixels
Height                      : 800 pixels
Display aspect ratio        : 2.40:1
Frame rate mode             : Constant
Frame rate                  : 23.976 (24000/1001) FPS
Color space                 : YUV
Chroma subsampling          : 4:2:0
Bit depth                   : 8 bits
Scan type                   : Progressive
Bits/(Pixel*Frame)          : 0.246
Stream size                 : 8.35 GiB (76%)
Title                       : John Carter (2012) 3D 1080p Dual
Language                    : English
Default                     : Yes
Forced                      : No

Audio #1
ID                          : 2
Format                      : AC-3
Format/Info                 : Audio Coding 3
Commercial name             : Dolby Digital
Codec ID                    : A_AC3
Duration                    : 2 h 12 min
Bit rate mode               : Constant
Bit rate                    : 640 kb/s
Channel(s)                  : 6 channels
Channel layout              : L R C LFE Ls Rs
Sampling rate               : 48.0 kHz
Frame rate                  : 31.250 FPS (1536 SPF)
Compression mode            : Lossy
Stream size                 : 604 MiB (5%)
Title                       : Latino  AC3 5.1
Language                    : Spanish
Service kind                : Complete Main
Default                     : Yes
Forced                      : No

Audio #2
ID                          : 3
Format                      : AC-3
Format/Info                 : Audio Coding 3
Commercial name             : Dolby Digital
Codec ID                    : A_AC3
Duration                    : 2 h 12 min
Bit rate mode               : Constant
Bit rate                    : 640 kb/s
Channel(s)                  : 6 channels
Channel layout              : L R C LFE Ls Rs
Sampling rate               : 48.0 kHz
Frame rate                  : 31.250 FPS (1536 SPF)
Compression mode            : Lossy
Stream size                 : 604 MiB (5%)
Title                       : Inglés AC3 5.1
Language                    : English
Service kind                : Complete Main
Default                     : No
Forced                      : No

Audio #3
ID                          : 4
Format                      : DTS
Format/Info                 : Digital Theater Systems
Codec ID                    : A_DTS
Duration                    : 2 h 12 min
Bit rate mode               : Constant
Bit rate                    : 1 509 kb/s
Channel(s)                  : 6 channels
Channel layout              : C L R Ls Rs LFE
Sampling rate               : 48.0 kHz
Frame rate                  : 93.750 FPS (512 SPF)
Bit depth                   : 24 bits
Compression mode            : Lossy
Delay relative to video     : 11 ms
Stream size                 : 1.39 GiB (13%)
Title                       : Inglés DTS 5.1
Language                    : English
Default                     : No
Forced                      : No

Text #1
ID                          : 5
Format                      : VobSub
Muxing mode                 : zlib
Codec ID                    : S_VOBSUB
Codec ID/Info               : Picture based subtitle format used on DVDs
Duration                    : 2 h 1 min
Bit rate                    : 295 b/s
Frame rate                  : 0.009 FPS
Count of elements           : 64
Stream size                 : 262 KiB (0%)
Title                       : Forzados (vobsub)
Language                    : Spanish
Default                     : Yes
Forced                      : Yes

Text #2
ID                          : 6
Format                      : VobSub
Muxing mode                 : zlib
Codec ID                    : S_VOBSUB
Codec ID/Info               : Picture based subtitle format used on DVDs
Duration                    : 2 h 4 min
Bit rate                    : 6 428 b/s
Frame rate                  : 0.140 FPS
Count of elements           : 1046
Stream size                 : 5.74 MiB (0%)
Title                       : Latino (vobsub)
Language                    : Spanish
Default                     : No
Forced                      : No

Text #3
ID                          : 7
Format                      : VobSub
Muxing mode                 : zlib
Codec ID                    : S_VOBSUB
Codec ID/Info               : Picture based subtitle format used on DVDs
Duration                    : 2 h 2 min
Bit rate                    : 6 760 b/s
Frame rate                  : 0.173 FPS
Count of elements           : 1272
Stream size                 : 5.91 MiB (0%)
Title                       : Ingles (vobsub)
Language                    : Spanish
Default                     : No
Forced                      : No

Text #4
ID                          : 8
Format                      : UTF-8
Codec ID                    : S_TEXT/UTF8
Codec ID/Info               : UTF-8 Plain Text
Duration                    : 2 h 1 min
Bit rate                    : 1 b/s
Frame rate                  : 0.009 FPS
Count of elements           : 64
Stream size                 : 1.35 KiB (0%)
Title                       : Forzados (srt)
Language                    : Spanish
Default                     : No
Forced                      : No

Text #5
ID                          : 9
Format                      : UTF-8
Codec ID                    : S_TEXT/UTF8
Codec ID/Info               : UTF-8 Plain Text
Duration                    : 2 h 4 min
Bit rate                    : 36 b/s
Frame rate                  : 0.140 FPS
Count of elements           : 1046
Stream size                 : 33.6 KiB (0%)
Title                       : Latino (srt)
Language                    : Spanish
Default                     : No
Forced                      : No

Text #6
ID                          : 10
Format                      : UTF-8
Codec ID                    : S_TEXT/UTF8
Codec ID/Info               : UTF-8 Plain Text
Duration                    : 2 h 2 min
Bit rate                    : 37 b/s
Frame rate                  : 0.173 FPS
Count of elements           : 1272
Stream size                 : 33.8 KiB (0%)
Title                       : Ingles (srt)
Language                    : English
Default                     : No
Forced                      : No

Menu
00:00:00.000                : en:Opening Credits
00:04:01.241                : en:The Will
00:10:22.913                : en:Striking Gold
00:20:08.790                : en:A New World
00:27:05.206                : en:Barsoom
00:37:29.163                : en:The Voice of Barsoom
00:47:43.569                : en:Dotar Sojat
00:58:51.653                : en:The Ninth Ray
01:07:42.433                : en:The Iss
01:15:01.038                : en:Two Cities Unitied
01:22:34.199                : en:The Key To Jasoom
01:30:29.799                : en:The Destruction of a World
01:37:02.066                : en:The Arena
01:46:52.030                : en:Change of Heart
01:53:48.988                : en:The Empty Torub
02:02:54.533                : en:End Credits


En su resubida el 15/11/2022, se agregan subtitulos 3D


CONTRASE%C3%91A-FINAL.png



Código:
www.club-hd.com




Descarga.png

Links Intercambiables



google-drive-vip.png


Tenemos TODO el material de Club-HD disponible por Mega, enlaces 100% activos y online hasta la fecha

Llévate tus cuentas Mega PRO III gratis con tu membresía VIP!
Todos los posts vivos con links de Mega.
Todo el material de Club-HD desbloqueado y sin publicidad.

Obtén más información sobre nuestras Membresías VIP





MEGA-BANNER.png


Tenemos TODO el material de Club-HD disponible por Mega, enlaces 100% activos y online hasta la fecha

Llévate tus cuentas Mega PRO III gratis con tu membresía VIP!
Todos los posts vivos con links de Mega.
Todo el material de Club-HD desbloqueado y sin publicidad.

Obtén más información sobre nuestras Membresías VIP



UPLOADED.TO_BANNER.png

Para ver este contenido oculto, debes dar click en el botón"Like", o cualquiera de las otras reacciones:

Me Gusta Me Gusta, Me Encanta Me Encanta, Jaja Jaja, Wow Wow, Triste Triste, Molesto Molesto



 
Última edición por un moderador:
:OHHH::OHHH: creo que la tendre lista para descargarla cuando tenga mi led 3D, gran aportaso revolver :dplgar:
 
te pasate revolver21 no esperaba de tener esta peli en 3d gracias saludos
 
Volver