John Dies at the End (2012) m-720p Audio Inglés [Subt. Esp] (Fantástico. Comedia. Terror)

Maestro Revolver

Well-known member
Miembro del Staff
Administrador
Registro
9 Ago 2012
Mensajes
3.569
Reacciones
59.346
Puntos
113

Reputation:









TÍTULO ORIGINAL: John Dies at the End
AÑO: 2012
DURACIÓN: 110 min.
PAÍS: USA
DIRECTOR: Don Coscarelli
GUIÓN: Don Coscarelli (Novela: David Wong)
REPARTO: Chase Williamson, Rob Mayes, Paul Giamatti, Clancy Brown, Glynn Turman, Doug Jones, Daniel Roebuck, Fabianne Therese, Jonny Weston, Jimmy Wong, Tai Bennett, Allison Weissman
PRODUCTORA: M3 Alliance
GÉNERO: Fantástico. Comedia. Terror | Comedia de terror. Comedia negra. Drogas
: http://www.imdb.com/title/tt1783732/






En la calle lo llaman "salsa de soja" y transporta a los que la toman a través del tiempo. Sin embargo, cuando algunos regresan ya no son seres humanos. Así es como se produce una invasión silenciosa de la Tierra que hace que la humanidad necesite urgentemente un héroe. Aquí aparecen John y David, un par de desertores de la universidad que apenas son capaces de mantener un trabajo. ¿Podrán estos dos seres aterrados salvar a tiempo a la humanidad?.
























La pelicula NO tiene ninguna marca... solo colocamos el nombre de esta web en las capturas






Código:
General
Format                                   : Matroska
Format version                           : Version 2
File size                                : 2.40 GiB
Duration                                 : 1h 39mn
Overall bit rate                         : 3 455 Kbps
Movie name                               : www.club-hd.com
Encoded date                             : UTC 2013-04-11 22:46:34
Writing application                      : mkvmerge v5.7.0 ('The Whirlwind') built on Jul  8 2012 20:08:51
Writing library                          : libebml v1.2.3 + libmatroska v1.3.0

Video
ID                                       : 1
Format                                   : AVC
Format/Info                              : Advanced Video Codec
Format profile                           : High@L4.1
Format settings, CABAC                   : Yes
Format settings, ReFrames                : 9 frames
Codec ID                                 : V_MPEG4/ISO/AVC
Duration                                 : 1h 39mn
Bit rate                                 : 2 815 Kbps
Width                                    : 1 280 pixels
Height                                   : 720 pixels
Display aspect ratio                     : 16:9
Frame rate mode                          : Constant
Frame rate                               : 23.976 fps
Color space                              : YUV
Chroma subsampling                       : 4:2:0
Bit depth                                : 8 bits
Scan type                                : Progressive
Bits/(Pixel*Frame)                       : 0.127
Stream size                              : 1.91 GiB (79%)
Title                                    : www.club-hd.com
Writing library                          : x264 core 130 r2273 b3065e6
Language                                 : English
Default                                  : Yes
Forced                                   : No

Audio
ID                                       : 2
Format                                   : AC-3
Format/Info                              : Audio Coding 3
Mode extension                           : CM (complete main)
Format settings, Endianness              : Big
Codec ID                                 : A_AC3
Duration                                 : 1h 39mn
Bit rate mode                            : Constant
Bit rate                                 : 640 Kbps
Channel(s)                               : 6 channels
Channel positions                        : Front: L C R, Side: L R, LFE
Sampling rate                            : 48.0 KHz
Bit depth                                : 16 bits
Compression mode                         : Lossy
Stream size                              : 456 MiB (19%)
Title                                    : www.club-hd.com
Language                                 : English
Default                                  : Yes
Forced                                   : No

Text
ID                                       : 3
Format                                   : UTF-8
Codec ID                                 : S_TEXT/UTF8
Codec ID/Info                            : UTF-8 Plain Text
Language                                 : Spanish
Default                                  : Yes
Forced                                   : No

Menu
00:00:00.000                             : en:Chapter 1
00:08:34.347                             : en:Chapter 2
00:15:17.750                             : en:Chapter 3
00:21:53.145                             : en:Chapter 4
00:28:18.697                             : en:Chapter 5
00:35:29.878                             : en:Chapter 6
00:41:37.995                             : en:Chapter 7
00:49:26.422                             : en:Chapter 8
01:00:41.888                             : en:Chapter 9
01:09:51.020                             : en:Chapter 10
01:21:42.481                             : en:Chapter 11
01:33:09.000                             : en:Chapter 12








Enlaces de Mega y Fireload solo disponibles para Miembros VIP

Compra tu Membresía VIP y apoya a Club-HD!

ATENCIÓN! Tenemos TODO el material de Club-HD disponible por Mega y Fireload, enlaces 100% activos y online hasta la fecha

Llévate tus cuentas Mega PRO II gratis con tu membresía VIP!
Todos los posts vivos con links de Mega y Fireload.
Todo el material de Club-HD desbloqueado y sin publicidad.

Click Aquí para más información.



Para ver este contenido oculto, debes dar click en una de las siguientes reacciones : Like Like, Love Love, Haha Haha, Wow Wow, Sad Sad, Angry Angry

 
Última edición por un moderador:

zacygal

Well-known member
Registro
3 Sep 2012
Mensajes
1.515
Reacciones
1.536
Puntos
113
Edad
49

Reputation:

Muy buena pela he visto los avances, espero que la subas en Dual ...

:dplgar:
 

caprileo

New member
Registro
28 Ago 2012
Mensajes
235
Reacciones
10
Puntos
0

Reputation:

OOOH...rara pelicula.... digna de ver... veamos que tal.....Gracias
 

Mate78

Ladron de mi cerebro
Miembro del Staff
Súper Moderador
Registro
27 Ago 2012
Mensajes
1.235
Reacciones
918
Puntos
113

Reputation:

Excelente , gracias Bestia!!!!!!:dplgar:
 

edward1080

Well-known member
Registro
23 Nov 2012
Mensajes
1.013
Reacciones
137
Puntos
63
Edad
34

Reputation:

Se ve interesante, gracias maestro Revolver!!!:dplgar:
 

enzure

Active member
Registro
28 Ago 2012
Mensajes
662
Reacciones
27
Puntos
28

Reputation:

Vi el trailer y se ve buena medio matrix y creo que al final se muere john, jejejeje
 

gadagaca

New member
Registro
28 Ago 2012
Mensajes
485
Reacciones
15
Puntos
0

Reputation:

Gracias por tu tiempo y dedicacion...veremos que tal es...
 

Usuarios Que Están Viendo Este Tema (Total: 1, Miembros: 0, Invitados: 1)

Arriba