John Q. (2002) 720p BDRip Dual Latino-Inglés [Subt. Esp] (Drama)

Maestro Revolver

Well-known member
Miembro del Staff
Administrador
Registro
9 Ago 2012
Mensajes
3.567








TÍTULO ORIGINAL: John Q.
AÑO: 2002
DURACIÓN: 118 min.
PAÍS: USA
DIRECTOR: Nick Cassavetes
GUIÓN: James Kearns
REPARTO: Denzel Washington, Robert Duvall, James Woods, Anne Heche, Kimberly Elise, Ray Liotta, Eddie Griffin, Shawn Hatosy, Daniel E. Smith, Laura Elena Harring, David Thornton, Dina Waters, Ethan Suplee, Gabriela Oltean, Heather Wahlquist, Keram Malicki-Sánchez, Kevin Connolly, Larissa Laskin, Martha Chaves, Obba Babatundé, Paul Johansson, Philip Williams, Troy Bailey, Troy Winbush
PRODUCTORA: New Line Productions
GÉNERO: Drama | Basado en hechos reales. Enfermedad
: http://www.imdb.com/title/tt0251160/






John Q. Archibald (Denzel Washington) es un hombre corriente que trabaja en una fábrica y se ocupa de su familia. Su mujer Denise (Kimberly Elise) y su hijo Michael (Daniel E. Smith) son todo su mundo. Pero, cuando su hijo cae gravemente enfermo y es preciso someterlo urgentemente a un trasplante de corazón, resulta que su seguro médico no cubre la operación.
























La pelicula NO tiene ninguna marca... solo colocamos el nombre de esta web en las capturas






Código:
General
Format                                   : Matroska
Format version                           : Version 2
File size                                : 4.52 GiB
Duration                                 : 1h 56mn
Overall bit rate                         : 5 574 Kbps
Movie name                               : www.club-hd.com
Encoded date                             : UTC 2013-12-06 18:38:48
Writing application                      : mkvmerge v5.7.0 ('The Whirlwind') built on Jul  8 2012 20:08:51
Writing library                          : libebml v1.2.3 + libmatroska v1.3.0

Video
ID                                       : 1
Format                                   : AVC
Format/Info                              : Advanced Video Codec
Format profile                           : High@L4.1
Format settings, CABAC                   : Yes
Format settings, ReFrames                : 4 frames
Codec ID                                 : V_MPEG4/ISO/AVC
Duration                                 : 1h 56mn
Bit rate                                 : 4 741 Kbps
Width                                    : 1 280 pixels
Height                                   : 720 pixels
Display aspect ratio                     : 16:9
Frame rate mode                          : Constant
Frame rate                               : 23.976 fps
Color space                              : YUV
Chroma subsampling                       : 4:2:0
Bit depth                                : 8 bits
Scan type                                : Progressive
Bits/(Pixel*Frame)                       : 0.215
Stream size                              : 3.76 GiB (83%)
Title                                    : www.club-hd.com
Writing library                          : x264 core 67 r1143M 7554705
Language                                 : English
Default                                  : Yes
Forced                                   : No

Audio #1
ID                                       : 2
Format                                   : AC-3
Format/Info                              : Audio Coding 3
Mode extension                           : CM (complete main)
Format settings, Endianness              : Big
Codec ID                                 : A_AC3
Duration                                 : 1h 56mn
Bit rate mode                            : Constant
Bit rate                                 : 192 Kbps
Channel(s)                               : 2 channels
Channel positions                        : Front: L R
Sampling rate                            : 48.0 KHz
Bit depth                                : 16 bits
Compression mode                         : Lossy
Delay relative to video                  : 2s 400ms
Stream size                              : 159 MiB (3%)
Title                                    : www.club-hd.com  >>  Latino
Language                                 : Spanish
Default                                  : Yes
Forced                                   : No

Audio #2
ID                                       : 3
Format                                   : AC-3
Format/Info                              : Audio Coding 3
Mode extension                           : CM (complete main)
Format settings, Endianness              : Big
Codec ID                                 : A_AC3
Duration                                 : 1h 56mn
Bit rate mode                            : Constant
Bit rate                                 : 640 Kbps
Channel(s)                               : 6 channels
Channel positions                        : Front: L C R, Side: L R, LFE
Sampling rate                            : 48.0 KHz
Bit depth                                : 16 bits
Compression mode                         : Lossy
Stream size                              : 531 MiB (11%)
Title                                    : www.club-hd.com  >>  Inglés
Language                                 : English
Default                                  : No
Forced                                   : No

Text
ID                                       : 4
Format                                   : UTF-8
Codec ID                                 : S_TEXT/UTF8
Codec ID/Info                            : UTF-8 Plain Text
Language                                 : Spanish
Default                                  : No
Forced                                   : No








Enlaces de Mega y Google Drive solo disponibles para Miembros VIP

Compra tu Membresía VIP y apoya a Club-HD!

ATENCIÓN! Tenemos TODO el material de Club-HD disponible por Mega y Google Drive, enlaces 100% activos y online hasta la fecha

Llévate tus cuentas Mega PRO III gratis con tu membresía VIP!
Todos los posts vivos con links de Mega y Google Drive.
Todo el material de Club-HD desbloqueado y sin publicidad.

Click Aquí para más información.



Para ver este contenido oculto, debes dar click en una de las siguientes reacciones : Like Like, Love Love, Haha Haha, Wow Wow, Sad Sad, Angry Angry

 
Última edición por un moderador:

enry056

New member
Registro
22 Nov 2012
Mensajes
206
Gracias master,hace algún tiempo vi ésta peli. pero ahora ne HD no está mal.
 

vyx

Well-known member
Colaborador
Miembro VIP
Registro
2 Sep 2012
Mensajes
943
gracias por la peli revolver descargando
 

Usuarios Que Están Viendo Este Tema (Total: 1, Miembros: 0, Invitados: 1)

Quién Leyó Este Tema (Total Miembros: 3)

Arriba