• Buenos dias amigos del club. Les queremos avisar que ya recuperamos el acceso a las webs de las Membresías VIP y del Paste. Asi que ya pueden comprar sus membresías y descargar todos los estrenos nuevamente.

Joy Ride (2001) 720p BDRip Dual Latino-Inglés [Subt. Esp] (Thriller. Terror)

Maestro Revolver

Administrador
Registro
9 Ago 2012
Mensajes
3.157
Reacciones (ptje)
55.343


Joy-Ride.jpg




FichaTecnica.jpg


TÍTULO ORIGINAL: Joy Ride
AÑO: 2001
DURACIÓN: 96 min.
PAÍS: USA
DIRECTOR: John Dahl
GUIÓN: Clay Tarver & J.J. Abrams
REPARTO: Steve Zahn, Paul Walker, Leelee Sobieski, Jessica Browman, Stuart Stone, Basil Wallace, Rachel Singer
PRODUCTORA: Regency Enterprises presenta una producción de New Regency / Bad Robot / Liveplanet
GÉNERO: Thriller. Terror | Slasher. Road Movie. Asesinos en serie
imdb-logo.png
: http://www.imdb.com/title/tt0206314/




Sinopsis.jpg


Han empezado las vacaciones y Lewis está listo para marcharse en coche con Venna, la chica de sus sueños, que acaba de romper con su novio. Pero sus planes se van al garete cuando tiene que desviarse para recoger a Fuller, su hermano mayor, famoso por meterse en líos, que ha vuelto a hacer de las suyas.




Trailer.jpg






Capturas.jpg


1.jpg


2.jpg


3.jpg


4.jpg


5.jpg


6.jpg


La pelicula NO tiene ninguna marca... solo colocamos el nombre de esta web en las capturas




MediaInfo.jpg


Código:
General
Format                                   : Matroska
Format version                           : Version 2
File size                                : 4.24 GiB
Duration                                 : 1h 37mn
Overall bit rate                         : 6 249 Kbps
Movie name                               : www.club-hd.com
Encoded date                             : UTC 2013-12-29 18:36:52
Writing application                      : mkvmerge v5.7.0 ('The Whirlwind') built on Jul  8 2012 20:08:51
Writing library                          : libebml v1.2.3 + libmatroska v1.3.0

Video
ID                                       : 1
Format                                   : AVC
Format/Info                              : Advanced Video Codec
Format profile                           : [email protected]
Format settings, CABAC                   : Yes
Format settings, ReFrames                : 11 frames
Codec ID                                 : V_MPEG4/ISO/AVC
Duration                                 : 1h 37mn
Bit rate                                 : 5 165 Kbps
Width                                    : 1 280 pixels
Height                                   : 544 pixels
Display aspect ratio                     : 2.35:1
Frame rate mode                          : Constant
Frame rate                               : 23.976 fps
Color space                              : YUV
Chroma subsampling                       : 4:2:0
Bit depth                                : 8 bits
Scan type                                : Progressive
Bits/(Pixel*Frame)                       : 0.309
Stream size                              : 3.51 GiB (83%)
Title                                    : www.club-hd.com
Writing library                          : x264 core 116 r2057 0ba8a9c
Language                                 : English
Default                                  : Yes
Forced                                   : No

Audio #1
ID                                       : 2
Format                                   : AC-3
Format/Info                              : Audio Coding 3
Mode extension                           : CM (complete main)
Format settings, Endianness              : Big
Codec ID                                 : A_AC3
Duration                                 : 1h 37mn
Bit rate mode                            : Constant
Bit rate                                 : 320 Kbps
Channel(s)                               : 6 channels
Channel positions                        : Front: L C R, Side: L R, LFE
Sampling rate                            : 48.0 KHz
Bit depth                                : 16 bits
Compression mode                         : Lossy
Delay relative to video                  : 2s 0ms
Stream size                              : 223 MiB (5%)
Title                                    : www.club-hd.com  >>  Latino
Language                                 : Spanish
Default                                  : Yes
Forced                                   : No

Audio #2
ID                                       : 3
Format                                   : AC-3
Format/Info                              : Audio Coding 3
Mode extension                           : CM (complete main)
Format settings, Endianness              : Big
Codec ID                                 : A_AC3
Duration                                 : 1h 37mn
Bit rate mode                            : Constant
Bit rate                                 : 640 Kbps
Channel(s)                               : 6 channels
Channel positions                        : Front: L C R, Side: L R, LFE
Sampling rate                            : 48.0 KHz
Bit depth                                : 16 bits
Compression mode                         : Lossy
Stream size                              : 445 MiB (10%)
Title                                    : www.club-hd.com  >>  Inglés
Language                                 : English
Default                                  : No
Forced                                   : No

Text
ID                                       : 4
Format                                   : UTF-8
Codec ID                                 : S_TEXT/UTF8
Codec ID/Info                            : UTF-8 Plain Text
Language                                 : Spanish
Default                                  : No
Forced                                   : No

Menu
00:00:00.000                             : en:00:00:00.000
00:01:53.113                             : en:00:01:53.113
00:03:49.187                             : en:00:03:49.187
00:06:03.405                             : en:00:06:03.405
00:10:04.813                             : en:00:10:04.813
00:11:40.116                             : en:00:11:40.116
00:15:52.827                             : en:00:15:52.827
00:17:21.707                             : en:00:17:21.707
00:21:27.912                             : en:00:21:27.912
00:25:58.515                             : en:00:25:58.515
00:31:03.612                             : en:00:31:03.612
00:36:08.375                             : en:00:36:08.375
00:39:21.985                             : en:00:39:21.985
00:42:22.206                             : en:00:42:22.206
00:48:36.372                             : en:00:48:36.372
00:50:40.829                             : en:00:50:40.829
00:54:37.191                             : en:00:54:37.191
00:58:30.382                             : en:00:58:30.382
01:00:51.731                             : en:01:00:51.731
01:02:46.346                             : en:01:02:46.346
01:04:39.501                             : en:01:04:39.501
01:08:00.451                             : en:01:08:00.451
01:12:18.042                             : en:01:12:18.042
01:15:57.678                             : en:01:15:57.678
01:18:10.060                             : en:01:18:10.060
01:24:02.829                             : en:01:24:02.829
01:25:54.107                             : en:01:25:54.107
01:29:02.587                             : en:01:29:02.587
01:31:40.620                             : en:01:31:40.620
01:33:05.288                             : en:01:33:05.288




Descarga.jpg



MEGA.jpg

Tenemos TODO el material de Club-HD disponible por Mega, enlaces 100% activos y online hasta la fecha

Llévate tus cuentas Mega PRO III gratis con tu membresía VIP!
Todos los posts vivos con links de Mega.
Todo el material de Club-HD desbloqueado y sin publicidad.

Obtén más información sobre nuestras Membresías VIP



UPLOADED_BANNER.png

Para ver este contenido oculto, debes dar click en el botón"Like", o cualquiera de las otras reacciones:

Me Gusta Me Gusta, Me Encanta Me Encanta, Jaja Jaja, Wow Wow, Triste Triste, Molesto Molesto

 
Última edición por un moderador:
Volver