Jumper (2008) 1080p BDRip Dual Latino-Ingles [Subt. Esp-Ing] (Ciencia ficción. Thriller)

Maestro Revolver

Administrador
Registro
9 Ago 2012
Mensajes
3.157
Reacciones (ptje)
54.886

Jumper-1080p.png




FICHA_TECNICA.png


TÍTULO ORIGINAL: Jumper
AÑO: 2008
DURACIÓN: 1h 28mn
PAÍS: USA
DIRECTOR: Doug Liman
GUIÓN: David S. Goyer, Simon Kinberg, Jim Uhls (Novela: Steven Gould)
REPARTO: Hayden Christensen, Jamie Bell, Samuel L. Jackson, Diane Lane, AnnaSophia Robb, Michael Rooker, Rachel Bilson, Tom Hulce
PRODUCTORA: 20th Century Fox / New Regency Pictures / Dune Entertainment
GÉNERO: Ciencia ficción. Thriller. Aventuras




SINOPSIS.png


David Rice ha nacido con un misterioso poder: teletransportarse a cualquier lugar del mundo que desee. Siempre ha utilizado esta facultad para escapar de su pasado, incrementar su inmensa fortuna o conservar su independencia. Sin embargo, cuando conoce a Griffin, un exaltado trotamundos que tiene el mismo poder que él, descubre que no es un ser tan singular, sino que pertenece a un grupo de personas con anomalías genéticas ("los saltadores") que, además, nunca están a salvo. De hecho David ha sido identificado por una organización secreta cuya misión es matar a los "saltadores" y será víctima de una persecución sin tregua por todo el mundo.




TRAILER.png






CAPTURAS.png


1.jpg


2.jpg


3.jpg


4.jpg


5.jpg


6.jpg


7.jpg


La pelicula NO tiene ninguna marca... solo coloque mi nombre de usuario en las capturas




DATOS_TECNICOS.png



General
Format : Matroska
Format version : Version 2
File size : 8.55 GiB
Duration : 1h 28mn
Overall bit rate : 13.8 Mbps
Movie name : www.club-hd.com
Encoded date : UTC 2012-07-08 00:27:35
Writing application : mkvmerge v4.8.0 ('I Got The...') built on May 24 2011 03:12:58
Writing library : libebml v1.2.0 + libmatroska v1.1.0
Attachment : Yes / Yes / Yes

Video
ID : 1
Format : AVC
Format/Info : Advanced Video Codec
Format profile : [email protected]
Format settings, CABAC : Yes
Format settings, ReFrames : 5 frames
Muxing mode : Header stripping
Codec ID : V_MPEG4/ISO/AVC
Duration : 1h 28mn
Bit rate : 11.2 Mbps
Width : 1 920 pixels
Height : 816 pixels
Display aspect ratio : 2.35:1
Frame rate mode : Constant
Frame rate : 23.976 fps
Color space : YUV
Chroma subsampling : 4:2:0
Bit depth : 8 bits
Scan type : Progressive
Bits/(Pixel*Frame) : 0.299
Stream size : 6.78 GiB (79%)
Title : www.club-hd.com
Writing library : x264 core 59 r851M e11ef38
Language : English
Default : Yes
Forced : No

Audio #1
ID : 2
Format : AC-3
Format/Info : Audio Coding 3
Mode extension : CM (complete main)
Format settings, Endianness : Big
Muxing mode : Header stripping
Codec ID : A_AC3
Duration : 1h 28mn
Bit rate mode : Constant
Bit rate : 448 Kbps
Channel(s) : 6 channels
Channel positions : Front: L C R, Side: L R, LFE
Sampling rate : 48.0 KHz
Bit depth : 16 bits
Compression mode : Lossy
Stream size : 284 MiB (3%)
Title : www.club-hd.com >> Latino AC3 5.1
Language : Spanish
Default : Yes
Forced : No

Audio #2
ID : 3
Format : AC-3
Format/Info : Audio Coding 3
Mode extension : CM (complete main)
Format settings, Endianness : Big
Muxing mode : Header stripping
Codec ID : A_AC3
Duration : 1h 28mn
Bit rate mode : Constant
Bit rate : 640 Kbps
Channel(s) : 6 channels
Channel positions : Front: L C R, Side: L R, LFE
Sampling rate : 48.0 KHz
Bit depth : 16 bits
Compression mode : Lossy
Stream size : 405 MiB (5%)
Title : www.club-hd.com >> Ingles AC3 5.1
Language : English
Default : No
Forced : No

Audio #3
ID : 4
Format : DTS
Format/Info : Digital Theater Systems
Mode : 16
Format settings, Endianness : Big
Muxing mode : Header stripping
Codec ID : A_DTS
Duration : 1h 28mn
Bit rate mode : Constant
Bit rate : 1 509 Kbps
Channel(s) : 6 channels
Channel positions : Front: L C R, Side: L R, LFE
Sampling rate : 48.0 KHz
Bit depth : 24 bits
Compression mode : Lossy
Stream size : 955 MiB (11%)
Title : www.club-hd.com >> Ingles DTS 5.1
Language : English
Default : No
Forced : No

Text #1
ID : 5
Format : UTF-8
Codec ID : S_TEXT/UTF8
Codec ID/Info : UTF-8 Plain Text
Title : Forzados
Language : Spanish
Default : Yes
Forced : No

Text #2
ID : 6
Format : UTF-8
Codec ID : S_TEXT/UTF8
Codec ID/Info : UTF-8 Plain Text
Language : Spanish
Default : No
Forced : No

Text #3
ID : 7
Format : UTF-8
Codec ID : S_TEXT/UTF8
Codec ID/Info : UTF-8 Plain Text
Language : English
Default : No
Forced : No






Descarga.png



MEGA.jpg

Tenemos TODO el material de Club-HD disponible por Mega, enlaces 100% activos y online hasta la fecha

Llévate tus cuentas Mega PRO III gratis con tu membresía VIP!
Todos los posts vivos con links de Mega.
Todo el material de Club-HD desbloqueado y sin publicidad.

Obtén más información sobre nuestras Membresías VIP


UPLOADED.TO_BANNER.png

Para ver este contenido oculto, debes dar click en el botón"Like", o cualquiera de las otras reacciones:

Me Gusta Me Gusta, Me Encanta Me Encanta, Jaja Jaja, Wow Wow, Triste Triste, Molesto Molesto
 
Última edición por un moderador:
Excelente, me gusto mucho cuando salio y la vi en el cine hace un tiempo... con gusto la agrego a mi coleccion
 
Volver