Killers of the Flower Moon (2023) 1080p BDRip Latino [Subt. Esp] (Thriller. Western)

Klass

DARK

Uploader
Registro
27 Sep 2015
Mensajes
888
Reacciones (ptje)
10.951
bRInmIX.png


Título Latino : Los Asesinos De La Luna


SINOPSIS

Ambientada en la década de 1920 en Oklahoma, cuenta la historia de los asesinatos en serie de miembros de la Nación Osage, un pueblo originario rico en petróleo. Una serie de crímenes brutales que llegaron a conocerse como el Reino del terror.


TRAILER


CAPTURAS


yoluNZR.png
Jw15839.png



MEDIAINFO


General
Unique ID : 154329832282241689124589092198912532605 (0x741AD83325FEB498862F28633A32A07D)
Format : Matroska
Format version : Version 4
File size : 19.5 GiB
Duration : 3 h 25 min
Overall bit rate : 13.6 Mb/s
Frame rate : 24.000 FPS
Movie name : Killers of the Flower Moon (2023) CLUB-HD
Encoded date : 2024-01-21 18:43:41 UTC
Writing application : mkvmerge v79.0 ('Funeral Pyres') 64-bit
Writing library : libebml v1.4.4 + libmatroska v1.7.1
Uploader : Klass

Video
ID : 1
Format : AVC
Format/Info : Advanced Video Codec
Format profile : [email protected]
Format settings : CABAC / 5 Ref Frames
Format settings, CABAC : Yes
Format settings, Reference frames : 5 frames
Codec ID : V_MPEG4/ISO/AVC
Duration : 3 h 25 min
Bit rate : 12.5 Mb/s
Width : 1 920 pixels
Height : 804 pixels
Display aspect ratio : 2.40:1
Frame rate mode : Constant
Frame rate : 24.000 FPS
Color space : YUV
Chroma subsampling : 4:2:0
Bit depth : 8 bits
Scan type : Progressive
Bits/(Pixel*Frame) : 0.337
Stream size : 17.9 GiB (92%)
Title : CLUB-HD
Writing library : x264 core 164 r3172+8 d0a13eb [Mod by Patman]
Encoding settings : cabac=1 / ref=5 / deblock=1:-3:-3 / analyse=0x3:0x113 / me=umh / subme=11 / psy=1 / psy_rd=1.05:0.00 / mixed_ref=1 / me_range=48 / chroma_me=1 / trellis=2 / 8x8dct=1 / cqm=0 / deadzone=21,11 / fast_pskip=0 / chroma_qp_offset=-2 / threads=25 / lookahead_threads=6 / sliced_threads=0 / nr=0 / decimate=0 / interlaced=0 / bluray_compat=0 / constrained_intra=0 / bframes=10 / b_pyramid=2 / b_adapt=2 / b_bias=0 / direct=3 / weightb=1 / open_gop=0 / weightp=2 / keyint=250 / keyint_min=23 / scenecut=40 / intra_refresh=0 / rc_lookahead=60 / rc=crf / mbtree=0 / crf=16.4 / qcomp=0.60 / qpmin=0 / qpmax=69 / qpstep=4 / vbv_maxrate=62500 / vbv_bufsize=78125 / crf_max=0.0 / nal_hrd=none / filler=0 / ip_ratio=1.30 / pb_ratio=1.20 / aq=3:0.80:1.00
Default : Yes
Forced : No
Color range : Limited
Color primaries : BT.709
Transfer characteristics : BT.709
Matrix coefficients : BT.709

Audio #1
ID : 2
Format : AC-3
Format/Info : Audio Coding 3
Commercial name : Dolby Digital
Codec ID : A_AC3
Duration : 3 h 25 min
Bit rate mode : Constant
Bit rate : 640 kb/s
Channel(s) : 6 channels
Channel layout : L R C LFE Ls Rs
Sampling rate : 48.0 kHz
Frame rate : 31.250 FPS (1536 SPF)
Compression mode : Lossy
Delay relative to video : 12 ms
Stream size : 942 MiB (5%)
Title : Latino
Language : Spanish
Service kind : Complete Main
Default : Yes
Forced : No

Audio #2
ID : 3
Format : AC-3
Format/Info : Audio Coding 3
Commercial name : Dolby Digital
Codec ID : A_AC3
Duration : 3 h 25 min
Bit rate mode : Constant
Bit rate : 448 kb/s
Channel(s) : 6 channels
Channel layout : L R C LFE Ls Rs
Sampling rate : 48.0 kHz
Frame rate : 31.250 FPS (1536 SPF)
Compression mode : Lossy
Stream size : 659 MiB (3%)
Title : Ingles
Language : English
Service kind : Complete Main
Default : No
Forced : No

Text
ID : 4
Format : UTF-8
Codec ID : S_TEXT/UTF8
Codec ID/Info : UTF-8 Plain Text
Duration : 3 h 24 min
Bit rate : 55 b/s
Frame rate : 0.198 FPS
Count of elements : 2418
Stream size : 83.2 KiB (0%)
Title : Latino
Language : Spanish (Latin America)
Default : No
Forced : No

Menu
00:00:00.000 : en:Chapter 01
00:14:27.292 : en:Chapter 02
00:34:27.792 : en:Chapter 03
00:52:02.250 : en:Chapter 04
01:11:14.500 : en:Chapter 05
01:24:03.625 : en:Chapter 06
01:41:36.375 : en:Chapter 07
01:59:10.292 : en:Chapter 08
02:12:39.917 : en:Chapter 09
02:30:51.958 : en:Chapter 10
02:48:02.042 : en:Chapter 11
03:06:23.625 : en:Chapter 12

CONTRASEÑA

www.club-hd.com


Todos los links son Intercambiables

DESCARGAR


2b50.png
1 LINK MKV VIP
2b50.png


MEGA-BANNER.png

Tenemos TODO el material de Club-HD disponible por Mega, enlaces 100% activos y online hasta la fecha

Llévate tus cuentas Mega PRO III gratis con tu membresía VIP!
Todos los posts vivos con links de Mega.
Todo el material de Club-HD desbloqueado y sin publicidad.

Obtén más información sobre nuestras Membresías VIP


LINKS FREE PÚBLICOS


1Cloudfile.png


Click aquí para descargar desde 1Cloudfile sin limite de descarga
 
Volver