Killing Kennedy (2013) 720p BDRip Audio Inglés [Subt. Esp] (Drama)

Maestro Revolver

Administrador
Registro
9 Ago 2012
Mensajes
3.157
Reacciones (ptje)
55.166


Killing-Kennedy.jpg




FichaTecnica.jpg


TÍTULO ORIGINAL: Killing Kennedy (TV)
AÑO: 2013
PAÍS: USA
DIRECTOR: Nelson McCormick
GUIÓN: Kelly Masterson (Novela: Bill O'Reilly)
REPARTO: Rob Lowe, Michelle Trachtenberg, Ginnifer Goodwin, Jack Noseworthy
PRODUCTORA: National Geographic Channel / Scott Free Productions
GÉNERO: Drama | Biográfico. Política. Telefilm. Años 50. Años 60
imdb-logo.png
: http://www.imdb.com/title/tt2815030/




Sinopsis.jpg


Narra los acontecimientos que condujeron al asesinato del presidente John F. Kennedy (Rob Lowe) por parte de Lee Harvey Oswald (Will Rothhaar), así como todo lo que ocurrió después. O'Reilly y Dugard también se centran en el elemento de la creciente Guerra Fría, el intento de Kennedy para hacer frente a la subida del comunismo y la potencial amenaza del crimen organizado. Todo comienz en el año 1959. Dos hombres muy diferentes experimentarán en cuestión de días un antes y un después en sus vidas: uno desde Washington D.C., donde se prepara para anunciar su candidatura a la presidencia del país; el otro, desde la embajada norteamericana en Moscú, listo para renunciar a su condición de ciudadano estadounidense. Dos acontecimientos aparentemente no relacionados, cuyas consecuencias cambiarían el rumbo de la Historia para siempre.




Trailer.jpg






Capturas.jpg


1.jpg


2.jpg


3.jpg


4.jpg


La pelicula NO tiene ninguna marca... solo colocamos el nombre de esta web en las capturas




MediaInfo.jpg


Código:
General
Format                                   : Matroska
Format version                           : Version 2
File size                                : 3.70 GiB
Duration                                 : 1h 29mn
Overall bit rate                         : 5 894 Kbps
Movie name                               : www.club-hd.com
Encoded date                             : UTC 2014-02-02 22:18:32
Writing application                      : mkvmerge v5.7.0 ('The Whirlwind') built on Jul  8 2012 20:08:51
Writing library                          : libebml v1.2.3 + libmatroska v1.3.0

Video
ID                                       : 1
Format                                   : AVC
Format/Info                              : Advanced Video Codec
Format profile                           : [email protected]
Format settings, CABAC                   : Yes
Format settings, ReFrames                : 5 frames
Muxing mode                              : Header stripping
Codec ID                                 : V_MPEG4/ISO/AVC
Duration                                 : 1h 29mn
Bit rate                                 : 5 446 Kbps
Width                                    : 1 280 pixels
Height                                   : 720 pixels
Display aspect ratio                     : 16:9
Frame rate mode                          : Constant
Frame rate                               : 23.976 fps
Color space                              : YUV
Chroma subsampling                       : 4:2:0
Bit depth                                : 8 bits
Scan type                                : Progressive
Bits/(Pixel*Frame)                       : 0.246
Stream size                              : 3.35 GiB (90%)
Title                                    : www.club-hd.com
Writing library                          : x264 core 140 r2377 1ca7bb9
Language                                 : English
Default                                  : Yes
Forced                                   : No

Audio
ID                                       : 2
Format                                   : AC-3
Format/Info                              : Audio Coding 3
Mode extension                           : CM (complete main)
Format settings, Endianness              : Big
Muxing mode                              : Header stripping
Codec ID                                 : A_AC3
Duration                                 : 1h 29mn
Bit rate mode                            : Constant
Bit rate                                 : 448 Kbps
Channel(s)                               : 6 channels
Channel positions                        : Front: L C R, Side: L R, LFE
Sampling rate                            : 48.0 KHz
Bit depth                                : 16 bits
Compression mode                         : Lossy
Stream size                              : 288 MiB (8%)
Title                                    : www.club-hd.com
Language                                 : English
Default                                  : Yes
Forced                                   : No

Text
ID                                       : 3
Format                                   : UTF-8
Codec ID                                 : S_TEXT/UTF8
Codec ID/Info                            : UTF-8 Plain Text
Title                                    : www.club-hd.com
Language                                 : Spanish
Default                                  : Yes
Forced                                   : No

Menu
00:00:00.000                             : en:00:00:00.000
00:01:59.911                             : en:00:01:59.911
00:03:45.142                             : en:00:03:45.142
00:07:08.053                             : en:00:07:08.053
00:10:12.987                             : en:00:10:12.987
00:14:23.029                             : en:00:14:23.029
00:17:50.945                             : en:00:17:50.945
00:22:41.652                             : en:00:22:41.652
00:25:55.554                             : en:00:25:55.554
00:29:19.341                             : en:00:29:19.341
00:31:56.498                             : en:00:31:56.498
00:34:29.609                             : en:00:34:29.609
00:38:33.895                             : en:00:38:33.895
00:42:06.566                             : en:00:42:06.566
00:44:47.768                             : en:00:44:47.768
00:48:26.737                             : en:00:48:26.737
00:51:35.884                             : en:00:51:35.884
00:55:59.773                             : en:00:55:59.773
00:57:58.308                             : en:00:57:58.308
01:01:45.493                             : en:01:01:45.493
01:06:02.000                             : en:01:06:02.000
01:08:12.547                             : en:01:08:12.547
01:11:02.592                             : en:01:11:02.592
01:12:49.824                             : en:01:12:49.824
01:15:29.859                             : en:01:15:29.859
01:18:24.241                             : en:01:18:24.241
01:22:42.374                             : en:01:22:42.374
01:26:48.829                             : en:01:26:48.829




Descarga.jpg



MEGA.jpg

Tenemos TODO el material de Club-HD disponible por Mega, enlaces 100% activos y online hasta la fecha

Llévate tus cuentas Mega PRO III gratis con tu membresía VIP!
Todos los posts vivos con links de Mega.
Todo el material de Club-HD desbloqueado y sin publicidad.

Obtén más información sobre nuestras Membresías VIP



UPLOADED_BANNER.png

Para ver este contenido oculto, debes dar click en el botón"Like", o cualquiera de las otras reacciones:

Me Gusta Me Gusta, Me Encanta Me Encanta, Jaja Jaja, Wow Wow, Triste Triste, Molesto Molesto
 
Última edición por un moderador:
Veremos que tal o:. Muchas gracias por el aporte !
 
Buena película e historia. Y verla en la versión original mejor aun. Gracias Revo, mañana no me daré a bastó con tantas descargas xD
 
mmm algo de fantasía ya que nadie sabe quien lo mato pero igual espero que sea tan buena como parece ser
 
Volver