Killing Them Softly (2012) 1080p BDRip Dual Latino-Inglés [Subt. Esp] (Thriller)

Maestro Revolver

Administrador
Registro
9 Ago 2012
Mensajes
3.157
Reacciones (ptje)
54.925


KillingThemSoftly1080p.jpg




FichaTecnica.jpg


TÍTULO ORIGINAL: Killing Them Softly
AÑO: 2012
DURACIÓN: 104 min.
PAÍS: USA
DIRECTOR: Andrew Dominik
GUIÓN: Andrew Dominik (Novela: George V. Higgins)
REPARTO: Brad Pitt, Scoot McNairy, Ben Mendelsohn, Richard Jenkins, James Gandolfini, Ray Liotta, Vincent Curatola, Slaine, Max Casella, Trevor Long, Sam Shepard, Garret Dillahunt, Bella Heathcote, Linara Washington, Ross Brodar
PRODUCTORA: The Weinstein Company / Second Line Stages / Annapurna Pictures
GÉNERO: Thriller. Cine negro | Mafia. Crimen. Cine independiente USA
imdb-logo.png
: http://www.imdb.com/title/tt1764234/




Sinopsis.jpg


La mafia se siente amenazada cuando unos desconocidos asaltan a los asistentes a una partida de póker. Los capos acuden al investigador Jackie Cogan (Brad Pitt) para encontrar a los culpables, responsables de una serie de robos a casinos protegidos por los propios mafiosos. Sin embargo, la misión de Cogan se complica entre indecisos, estafadores de segunda, asesinos cansados... y la situación comienza a degenerar poco a poco.




Trailer.jpg






Capturas.jpg


1.jpg


2.jpg


3.jpg


4.jpg


5.jpg


6.jpg


La pelicula NO tiene ninguna marca... solo colocamos el nombre de esta web en las capturas




MediaInfo.jpg


Código:
General
Format                                   : Matroska
Format version                           : Version 2
File size                                : 8.65 GiB
Duration                                 : 1h 37mn
Overall bit rate                         : 12.7 Mbps
Movie name                               : www.club-hd.com
Encoded date                             : UTC 2013-04-30 22:38:32
Writing application                      : mkvmerge v5.8.0 ('No Sleep / Pillow') built on Sep  2 2012 15:37:04
Writing library                          : libebml v1.2.3 + libmatroska v1.3.0

Video
ID                                       : 1
Format                                   : AVC
Format/Info                              : Advanced Video Codec
Format profile                           : [email protected]
Format settings, CABAC                   : Yes
Format settings, ReFrames                : 5 frames
Codec ID                                 : V_MPEG4/ISO/AVC
Duration                                 : 1h 37mn
Bit rate                                 : 10.2 Mbps
Width                                    : 1 920 pixels
Height                                   : 800 pixels
Display aspect ratio                     : 2.40:1
Frame rate mode                          : Constant
Frame rate                               : 24.000 fps
Color space                              : YUV
Chroma subsampling                       : 4:2:0
Bit depth                                : 8 bits
Scan type                                : Progressive
Bits/(Pixel*Frame)                       : 0.276
Stream size                              : 6.71 GiB (78%)
Title                                    : www.club-hd.com
Writing library                          : x264 core 120 r2164+656 2ff844c
Language                                 : English
Default                                  : Yes
Forced                                   : No

Audio #1
ID                                       : 2
Format                                   : AC-3
Format/Info                              : Audio Coding 3
Mode extension                           : CM (complete main)
Format settings, Endianness              : Big
Codec ID                                 : A_AC3
Duration                                 : 1h 37mn
Bit rate mode                            : Constant
Bit rate                                 : 448 Kbps
Channel(s)                               : 6 channels
Channel positions                        : Front: L C R, Side: L R, LFE
Sampling rate                            : 48.0 KHz
Bit depth                                : 16 bits
Compression mode                         : Lossy
Stream size                              : 311 MiB (4%)
Title                                    : Audio Latino AC3 5.1 - Exclusivo Club-HD
Language                                 : Spanish
Default                                  : Yes
Forced                                   : No

Audio #2
ID                                       : 3
Format                                   : AC-3
Format/Info                              : Audio Coding 3
Mode extension                           : CM (complete main)
Format settings, Endianness              : Big
Codec ID                                 : A_AC3
Duration                                 : 1h 37mn
Bit rate mode                            : Constant
Bit rate                                 : 640 Kbps
Channel(s)                               : 6 channels
Channel positions                        : Front: L C R, Side: L R, LFE
Sampling rate                            : 48.0 KHz
Bit depth                                : 16 bits
Compression mode                         : Lossy
Stream size                              : 445 MiB (5%)
Title                                    : Audio Inglés AC3 5.1
Language                                 : English
Default                                  : No
Forced                                   : No

Audio #3
ID                                       : 4
Format                                   : DTS
Format/Info                              : Digital Theater Systems
Mode                                     : 16
Format settings, Endianness              : Big
Codec ID                                 : A_DTS
Duration                                 : 1h 37mn
Bit rate mode                            : Constant
Bit rate                                 : 1 509 Kbps
Channel(s)                               : 6 channels
Channel positions                        : Front: L C R, Side: L R, LFE
Sampling rate                            : 48.0 KHz
Bit depth                                : 24 bits
Compression mode                         : Lossy
Stream size                              : 1.02 GiB (12%)
Title                                    : Audio Inglés DTS 5.1
Language                                 : English
Default                                  : No
Forced                                   : No

Text
ID                                       : 5
Format                                   : UTF-8
Codec ID                                 : S_TEXT/UTF8
Codec ID/Info                            : UTF-8 Plain Text
Language                                 : Spanish
Default                                  : No
Forced                                   : No




Descarga.jpg



MEGA.jpg

Tenemos TODO el material de Club-HD disponible por Mega, enlaces 100% activos y online hasta la fecha

Llévate tus cuentas Mega PRO III gratis con tu membresía VIP!
Todos los posts vivos con links de Mega.
Todo el material de Club-HD desbloqueado y sin publicidad.

Obtén más información sobre nuestras Membresías VIP



UPLOADED_BANNER.png

Para ver este contenido oculto, debes dar click en el botón"Like", o cualquiera de las otras reacciones:

Me Gusta Me Gusta, Me Encanta Me Encanta, Jaja Jaja, Wow Wow, Triste Triste, Molesto Molesto

 
Última edición por un moderador:
Ahora que esta en dual me la bajo xD, gracias master

saludos
 
Muchas gracias por tremendo aporte Ya en 1080p y Dual.:aplausos::aplausos:
 
Desc_g_ Killing Them Softly (2012) 1080p BDRip Dual Latino-Inglés [Subt. Esp] (Thriller) ........Gracias.............Tb_up3
 
Como es posible que no haya visto esta pelicula antes :O muchisimas gracias R21 con la mejor calidad y en audio dual :D
 
La estaba esperando en Dual muchas gracias master, Excelente Labor :aplausos:
 
Volver