Kiss Kiss Bang Bang (2005) m-720p BDRip Dual Latino-Inglés [Subt. Esp] (Thriller. Intriga. Acción)

Maestro Revolver

Well-known member
Miembro del Staff
Administrador
Registro
9 Ago 2012
Mensajes
3.567








TÍTULO ORIGINAL: Kiss Kiss Bang Bang
AÑO: 2005
DURACIÓN: 118 min.
PAÍS: USA
DIRECTOR: Shane Black
GUIÓN: Shane Black
REPARTO: Robert Downey Jr., Val Kilmer, Michelle Monaghan, Corbin Bernsen, Dash Mihok, Larry Miller, Rockmond Dunbar, Shannyn Sossamon
PRODUCTORA: Warner Bros. Pictures presenta una producción Silver Pictures
GÉNERO: Thriller. Intriga. Acción | Comedia negra. Neo-noir
: http://www.imdb.com/title/tt0373469/


Premios: 2005: Satellite Awards: Mejor actor secundario (Kilmer). 5 nominaciones
2005: Nominada a Critics' Choice Awards: Mejor comedia






Harry Lockhart es en esencia un tipo decente. Es cierto que es un ladrón de poca monta que va por la vida con una mezcla no muy sólida de encanto desfasado y optimismo inconsciente, pero quiere hacer lo correcto. La eterna mala suerte de Harry empieza a mejorar cuando él y su socio están haciendo algunas "compras" navideñas fuera de horas en una tienda de juguetes de Nueva York y la alarma de seguridad acaba con la fiesta. En su frenética huída de la policía, Harry se ve metido sin querer en una audición para una película de detectives de Hollywood y, en un abrir y cerrar de ojos, el productor lo lleva en avión a Los Angeles para hacerle una prueba. Lanzado al feroz mundo de los profesionales, estafadores, perdedores y aspirantes a actores de Los Ángeles, a Harry le adjudican el duro detective privado Perry van Shrike, también conocido como "Gay Perry", para que le prepare para su prueba.
























La pelicula NO tiene ninguna marca... solo colocamos el nombre de esta web en las capturas






Código:
General
Format                                   : Matroska
Format version                           : Version 2
File size                                : 2.49 GiB
Duration                                 : 1h 42mn
Overall bit rate                         : 3 469 Kbps
Movie name                               : www.club-hd.com
Encoded date                             : UTC 2013-05-31 00:24:25
Writing application                      : mkvmerge v5.7.0 ('The Whirlwind') built on Jul  8 2012 20:08:51
Writing library                          : libebml v1.2.3 + libmatroska v1.3.0

Video
ID                                       : 1
Format                                   : AVC
Format/Info                              : Advanced Video Codec
Format profile                           : High@L4.1
Format settings, CABAC                   : Yes
Format settings, ReFrames                : 6 frames
Codec ID                                 : V_MPEG4/ISO/AVC
Duration                                 : 1h 42mn
Bit rate                                 : 2 568 Kbps
Width                                    : 1 280 pixels
Height                                   : 530 pixels
Display aspect ratio                     : 2.40:1
Frame rate mode                          : Constant
Frame rate                               : 23.976 fps
Color space                              : YUV
Chroma subsampling                       : 4:2:0
Bit depth                                : 8 bits
Scan type                                : Progressive
Bits/(Pixel*Frame)                       : 0.158
Stream size                              : 1.84 GiB (74%)
Title                                    : www.club-hd.com
Writing library                          : x264 core 130 r2273 b3065e6
Language                                 : English
Default                                  : Yes
Forced                                   : No

Audio #1
ID                                       : 2
Format                                   : AC-3
Format/Info                              : Audio Coding 3
Format profile                           : Dolby Digital
Mode extension                           : CM (complete main)
Format settings, Endianness              : Big
Codec ID                                 : A_AC3
Duration                                 : 1h 42mn
Bit rate mode                            : Constant
Bit rate                                 : 192 Kbps
Channel(s)                               : 2 channels
Channel positions                        : Front: L R
Sampling rate                            : 48.0 KHz
Bit depth                                : 16 bits
Compression mode                         : Lossy
Delay relative to video                  : 1s 100ms
Stream size                              : 141 MiB (6%)
Title                                    : www.club-hd.com  >>  Latino
Language                                 : Spanish
Default                                  : Yes
Forced                                   : No

Audio #2
ID                                       : 3
Format                                   : AC-3
Format/Info                              : Audio Coding 3
Mode extension                           : CM (complete main)
Format settings, Endianness              : Big
Codec ID                                 : A_AC3
Duration                                 : 1h 42mn
Bit rate mode                            : Constant
Bit rate                                 : 640 Kbps
Channel(s)                               : 6 channels
Channel positions                        : Front: L C R, Side: L R, LFE
Sampling rate                            : 48.0 KHz
Bit depth                                : 16 bits
Compression mode                         : Lossy
Stream size                              : 470 MiB (18%)
Title                                    : www.club-hd.com  >>  Inglés
Language                                 : English
Default                                  : No
Forced                                   : No

Text
ID                                       : 4
Format                                   : UTF-8
Codec ID                                 : S_TEXT/UTF8
Codec ID/Info                            : UTF-8 Plain Text
Language                                 : Spanish
Default                                  : No
Forced                                   : No








Enlaces de Mega y Google Drive solo disponibles para Miembros VIP

Compra tu Membresía VIP y apoya a Club-HD!

ATENCIÓN! Tenemos TODO el material de Club-HD disponible por Mega y Google Drive, enlaces 100% activos y online hasta la fecha

Llévate tus cuentas Mega PRO III gratis con tu membresía VIP!
Todos los posts vivos con links de Mega y Google Drive.
Todo el material de Club-HD desbloqueado y sin publicidad.

Click Aquí para más información.




Enlaces de Mega y Google Drive solo disponibles para Miembros VIP

Compra tu Membresía VIP y apoya a Club-HD!

ATENCIÓN! Tenemos TODO el material de Club-HD disponible por Mega y Google Drive, enlaces 100% activos y online hasta la fecha

Llévate tus cuentas Mega PRO III gratis con tu membresía VIP!
Todos los posts vivos con links de Mega y Google Drive.
Todo el material de Club-HD desbloqueado y sin publicidad.

Click Aquí para más información.



Para ver este contenido oculto, debes dar click en una de las siguientes reacciones : Like Like, Love Love, Haha Haha, Wow Wow, Sad Sad, Angry Angry




Para ver este contenido oculto, debes dar click en una de las siguientes reacciones : Like Like, Love Love, Haha Haha, Wow Wow, Sad Sad, Angry Angry
 
Última edición por un moderador:

Ezze

Well-known member
Miembro del Staff
Súper Moderador
Miembro VIP
Registro
28 Ago 2012
Mensajes
1.666
Ubicación
En la Torre de Observación
Yo..... menos que menos la he visto xD Pero nunca es tarde :D Muchas gracias Revolver :dplgar: Parece una gran comedia. Saludos bye
 

Usuarios Que Están Viendo Este Tema (Total: 1, Miembros: 0, Invitados: 1)

Quién Leyó Este Tema (Total Miembros: 4)

Arriba