Kung Fu Panda 2 (2011) m-720p Dual Latino-Ingles [Subt. Esp-Ing] (Animación)

Maestro Revolver

Administrador
Registro
9 Ago 2012
Mensajes
3.157
Reacciones (ptje)
55.041


Kung-fu-panda-2.jpg




FichaTecnica.jpg


TÍTULO ORIGINAL: Kung Fu Panda 2 (Kung Fu Panda: The Kaboom of Doom)
AÑO: 2011
DURACIÓN: 90 min.
PAÍS: USA
DIRECTOR: Jennifer Yuh
GUIÓN: Jonathan Aibel, Glenn Berger
REPARTO: Animation
PRODUCTORA: DreamWorks Animation
GÉNERO: Animación. Comedia. Acción | Artes marciales. Secuela
imdb-logo.png
: http://www.imdb.com/title/tt1302011/

PREMIOS: 2011: Oscar: Nominada a Mejor largometraje de animación
2011: Premios Annie: Mejor director y diseño de producción. 12 nominaciones
2011: Critics Choice Awards: Nominada a Mejor película de animación
2011: Satellite Awards: Nominada a Mejor película de animación o mezcla de técnicas




Sinopsis.jpg


Secuela de la exitosa producción Kung Fu Panda. La historia vuelve a recuperar el personaje de Po, que ahora vive su sueño como guerrero dragón protegiendo el valle de la paz junto a sus amigos los cinco furiosos. Pero Po será amenazado por un nuevo villano, que planea usar una imparable arma secreta para conquistar China y destruir el Kung Fu. Po se enfrentará a él, pero como se puede parar un arma que puede destruir el Kung Fu. Po deberá buscar en su pasado y descubrir los secretos de su misterioso origen, solo entonces podrá encontrar la fuerza que necesita.




Trailer.jpg






Capturas.jpg


1.jpg


2.jpg


3.jpg


4.jpg


5.jpg


6.jpg


La pelicula NO tiene ninguna marca... solo colocamos el nombre de esta web en las capturas




MediaInfo.jpg


Código:
General
Format                                   : Matroska
Format version                           : Version 2
File size                                : 2.49 GiB
Duration                                 : 1h 30mn
Overall bit rate                         : 3 938 Kbps
Movie name                               : www.club-hd.com
Encoded date                             : UTC 2013-02-25 02:56:07
Writing application                      : mkvmerge v5.7.0 ('The Whirlwind') built on Jul  8 2012 20:08:51
Writing library                          : libebml v1.2.3 + libmatroska v1.3.0

Video
ID                                       : 1
Format                                   : AVC
Format/Info                              : Advanced Video Codec
Format profile                           : [email protected]
Format settings, CABAC                   : Yes
Format settings, ReFrames                : 9 frames
Codec ID                                 : V_MPEG4/ISO/AVC
Duration                                 : 1h 30mn
Bit rate                                 : 2 848 Kbps
Width                                    : 1 280 pixels
Height                                   : 544 pixels
Display aspect ratio                     : 2.35:1
Frame rate mode                          : Constant
Frame rate                               : 23.976 fps
Color space                              : YUV
Chroma subsampling                       : 4:2:0
Bit depth                                : 8 bits
Scan type                                : Progressive
Bits/(Pixel*Frame)                       : 0.171
Stream size                              : 1.75 GiB (70%)
Title                                    : www.club-hd.com
Writing library                          : x264 core 128 r2216 198a7ea
Language                                 : English
Default                                  : Yes
Forced                                   : No

Audio #1
ID                                       : 2
Format                                   : AC-3
Format/Info                              : Audio Coding 3
Mode extension                           : CM (complete main)
Format settings, Endianness              : Big
Codec ID                                 : A_AC3
Duration                                 : 1h 30mn
Bit rate mode                            : Constant
Bit rate                                 : 448 Kbps
Channel(s)                               : 6 channels
Channel positions                        : Front: L C R, Side: L R, LFE
Sampling rate                            : 48.0 KHz
Bit depth                                : 16 bits
Compression mode                         : Lossy
Stream size                              : 290 MiB (11%)
Title                                    : www.club-hd.com  >>  Latino
Language                                 : Spanish
Default                                  : Yes
Forced                                   : No

Audio #2
ID                                       : 3
Format                                   : AC-3
Format/Info                              : Audio Coding 3
Mode extension                           : CM (complete main)
Format settings, Endianness              : Big
Codec ID                                 : A_AC3
Duration                                 : 1h 30mn
Bit rate mode                            : Constant
Bit rate                                 : 640 Kbps
Channel(s)                               : 6 channels
Channel positions                        : Front: L C R, Side: L R, LFE
Sampling rate                            : 48.0 KHz
Bit depth                                : 16 bits
Compression mode                         : Lossy
Stream size                              : 414 MiB (16%)
Title                                    : www.club-hd.com  >>  Inglés
Language                                 : English
Default                                  : No
Forced                                   : No

Text #1
ID                                       : 4
Format                                   : UTF-8
Codec ID                                 : S_TEXT/UTF8
Codec ID/Info                            : UTF-8 Plain Text
Language                                 : Spanish
Default                                  : No
Forced                                   : No

Text #2
ID                                       : 5
Format                                   : UTF-8
Codec ID                                 : S_TEXT/UTF8
Codec ID/Info                            : UTF-8 Plain Text
Language                                 : English
Default                                  : No
Forced                                   : No

Menu
00:00:00.000                             : en:Chapter 1
00:03:54.276                             : en:Chapter 2
00:10:35.343                             : en:Chapter 3
00:16:09.385                             : en:Chapter 4
00:21:15.774                             : en:Chapter 5
00:29:56.628                             : en:Chapter 6
00:36:53.878                             : en:Chapter 7
00:41:14.180                             : en:Chapter 8
00:49:44.815                             : en:Chapter 9
00:54:06.827                             : en:Chapter 10
00:58:54.781                             : en:Chapter 11
01:05:09.239                             : en:Chapter 12
01:11:43.799                             : en:Chapter 13
01:15:31.902                             : en:Chapter 14
01:21:15.871                             : en:Chapter 15




Descarga.jpg



google-drive-vip.png


Tenemos TODO el material de Club-HD disponible por Mega, enlaces 100% activos y online hasta la fecha

Llévate tus cuentas Mega PRO III gratis con tu membresía VIP!
Todos los posts vivos con links de Mega.
Todo el material de Club-HD desbloqueado y sin publicidad.

Obtén más información sobre nuestras Membresías VIP




MEGA.jpg

Tenemos TODO el material de Club-HD disponible por Mega, enlaces 100% activos y online hasta la fecha

Llévate tus cuentas Mega PRO III gratis con tu membresía VIP!
Todos los posts vivos con links de Mega.
Todo el material de Club-HD desbloqueado y sin publicidad.

Obtén más información sobre nuestras Membresías VIP



UPLOADED_BANNER.png

Para ver este contenido oculto, debes dar click en el botón"Like", o cualquiera de las otras reacciones:

Me Gusta Me Gusta, Me Encanta Me Encanta, Jaja Jaja, Wow Wow, Triste Triste, Molesto Molesto

 
Última edición por un moderador:
y dicen que las segundas partes nunca es mejor, pues creo que aqui fue una de las excepciones , una excelente pelicula, gracias revolver
 
Gracias Maestro me la llevo xD


Saludos!
 
Muchas gracias Revolver!!!!!

Saludos! victory
 
para completar la saga, gracias Masterrr!!!!!!!!!:dplgar:
 
Que excelente aporte, que no podía faltar en el Club., y concuerdo con Arkk. creo que esta es mejor que la 1.:aplausos::aplausos::aplausos:

Gracias Monstruo R21!:aplausos::aplausos::LXR::LXR:
 
pues esta gran pelicula formara parte de la colección como siempre me siento privilegiado de que todas las peliculas que me gustaron o me hicieron reír o asustar un poco o por complacer a mi novia o ver con mis amigos siempre se encuentren aqui gracias por llenarnos de emociones con cada peli lo que haces tiene un precio enorme y el precio es que nos llenan de felicidad :dplgar:
 
pues esta gran pelicula formara parte de la colección como siempre me siento privilegiado de que todas las peliculas que me gustaron o me hicieron reír o asustar un poco o por complacer a mi novia o ver con mis amigos siempre se encuentren aqui gracias por llenarnos de emociones con cada peli lo que haces tiene un precio enorme y el precio es que nos llenan de felicidad :dplgar:

Comentarios como este son los que hacen que nuestros Master realicen su tarea cada vez con mas energia y felicidad, al fin al cabo...es para el gust y satisfaccion de cada uno de sus miembros, gracias por tan buenas palabras amigo.Pl4yb0y
 
  • Me Encanta
Reacciones: Max
Volver