Kung Fu Panda 4 (2024) 1080p BDRip Latino-Inglés [Subt.Esp] (Animación. Comedia. Acción)

LuchoO

責任者

Moderador
Uploader
Registro
15 Ago 2015
Mensajes
1.940
Reacciones (ptje)
29.011

cover.png



FICHA.TECNICA.png


Captura1.JPG


SINOPSIS.PNG



Po, quien se convertirá en el Maestro Espiritual del Valle de la Paz, busca a su sucesor como el nuevo Guerrero Dragón mientras lucha contra una nueva enemiga llamada "La Camaleona".

6.3



TRAILER.PNG



CAPTURAS.PNG


kf.0001.jpeg


kf.0002.jpeg


kf.0002.jpeg


kf.0004.jpeg



MEDIAINFO.PNG

General
Complete name : Kung Fu Panda 4 2024 BDRip 1080p H264 Dual.mkv
Format : Matroska
Format version : Version 4
File size : 13.6 GiB
Duration : 1 h 33 min
Overall bit rate mode : Variable
Overall bit rate : 20.9 Mb/s
Frame rate : 23.976 FPS
Movie name : [Club-HD] Kung Fu Panda 4 2024 BDRip 1080p H264 Dual.mkv
Encoded date : 2024-05-28 00:22:43 UTC
Writing application : mkvmerge v77.0 ('Elemental') 64-bit
Writing library : libebml v1.4.4 + libmatroska v1.7.1
Cover : Yes
Attachments : cover.jpg

Video
ID : 1
Format : AVC
Format/Info : Advanced Video Codec
Format profile : [email protected]
Format settings : CABAC / 5 Ref Frames
Format settings, CABAC : Yes
Format settings, Reference frames : 5 frames
Codec ID : V_MPEG4/ISO/AVC
Duration : 1 h 33 min
Bit rate : 16.0 Mb/s
Width : 1 920 pixels
Height : 804 pixels
Display aspect ratio : 2.40:1
Frame rate mode : Constant
Frame rate : 23.976 (24000/1001) FPS
Color space : YUV
Chroma subsampling : 4:2:0
Bit depth : 8 bits
Scan type : Progressive
Bits/(Pixel*Frame) : 0.431
Stream size : 10.4 GiB (77%)
Writing library : x264 core 164 r3191 4613ac3
Encoding settings : cabac=1 / ref=5 / deblock=1:-3:-3 / analyse=0x3:0x133 / me=umh / subme=9 / psy=1 / psy_rd=1.00:0.00 / mixed_ref=1 / me_range=16 / chroma_me=1 / trellis=2 / 8x8dct=1 / cqm=0 / deadzone=21,11 / fast_pskip=0 / chroma_qp_offset=-2 / threads=25 / lookahead_threads=2 / sliced_threads=0 / nr=0 / decimate=1 / interlaced=0 / bluray_compat=0 / constrained_intra=0 / bframes=3 / b_pyramid=2 / b_adapt=2 / b_bias=0 / direct=3 / weightb=1 / open_gop=0 / weightp=2 / keyint=250 / keyint_min=23 / scenecut=40 / intra_refresh=0 / rc_lookahead=60 / rc=crf / mbtree=1 / crf=11.5 / qcomp=0.60 / qpmin=0 / qpmax=69 / qpstep=4 / ip_ratio=1.40 / aq=1:1.00
Language : English
Default : No
Forced : No

Audio #1
ID : 2
Format : E-AC-3
Format/Info : Enhanced AC-3
Commercial name : Dolby Digital Plus
Format profile : Blu-ray Disc
Codec ID : A_EAC3
Duration : 1 h 33 min
Bit rate mode : Constant
Bit rate : 768 kb/s
Channel(s) : 8 channels
Channel layout : L R C LFE Ls Rs Lb Rb
Sampling rate : 48.0 kHz
Frame rate : 31.250 FPS (1536 SPF)
Compression mode : Lossy
Stream size : 514 MiB (4%)
Title : DD+ 7.1
Language : Spanish
Service kind : Complete Main
Default : Yes
Forced : No

Audio #2
ID : 3
Format : AC-3
Format/Info : Audio Coding 3
Commercial name : Dolby Digital
Codec ID : A_AC3
Duration : 1 h 33 min
Bit rate mode : Constant
Bit rate : 448 kb/s
Channel(s) : 6 channels
Channel layout : L R C LFE Ls Rs
Sampling rate : 48.0 kHz
Frame rate : 31.250 FPS (1536 SPF)
Compression mode : Lossy
Stream size : 300 MiB (2%)
Title : AC-3
Language : Spanish
Service kind : Complete Main
Default : No
Forced : No

Audio #3
ID : 4
ID in the original source medium : 4352 (0x1100)
Format : MLP FBA 16-ch
Format/Info : Meridian Lossless Packing FBA with 16-channel presentation
Commercial name : Dolby TrueHD with Dolby Atmos
Codec ID : A_TRUEHD
Duration : 1 h 33 min
Bit rate mode : Variable
Bit rate : 3 093 kb/s
Maximum bit rate : 4 794 kb/s
Channel(s) : 8 channels
Channel layout : L R C LFE Ls Rs Lb Rb
Sampling rate : 48.0 kHz
Frame rate : 1 200.000 FPS (40 SPF)
Compression mode : Lossless
Stream size : 2.02 GiB (15%)
Title : TrueHD
Language : English
Default : No
Forced : No
Original source medium : Blu-ray
Number of dynamic objects : 13
Bed channel count : 1 channel
Bed channel configuration : LFE

Audio #4
ID : 5
ID in the original source medium : 4352 (0x1100)
Format : AC-3
Format/Info : Audio Coding 3
Commercial name : Dolby Digital
Codec ID : A_AC3
Duration : 1 h 33 min
Bit rate mode : Constant
Bit rate : 448 kb/s
Channel(s) : 6 channels
Channel layout : L R C LFE Ls Rs
Sampling rate : 48.0 kHz
Frame rate : 31.250 FPS (1536 SPF)
Compression mode : Lossy
Stream size : 300 MiB (2%)
Title : AC-3
Language : English
Service kind : Complete Main
Default : No
Forced : No
Original source medium : Blu-ray

Text #1
ID : 6
ID in the original source medium : 4608 (0x1200)
Format : PGS
Muxing mode : zlib
Codec ID : S_HDMV/PGS
Codec ID/Info : Picture based subtitle format used on BDs/HD-DVDs
Duration : 1 h 26 min
Bit rate : 56.0 kb/s
Frame rate : 0.651 FPS
Count of elements : 3398
Stream size : 34.9 MiB (0%)
Language : English
Default : No
Forced : No
Original source medium : Blu-ray

Text #2
ID : 7
ID in the original source medium : 4609 (0x1201)
Format : PGS
Muxing mode : zlib
Codec ID : S_HDMV/PGS
Codec ID/Info : Picture based subtitle format used on BDs/HD-DVDs
Duration : 1 h 32 min
Bit rate : 42.7 kb/s
Frame rate : 0.461 FPS
Count of elements : 2546
Stream size : 28.1 MiB (0%)
Language : Spanish
Default : No
Forced : No
Original source medium : Blu-ray

Text #3
ID : 8
ID in the original source medium : 4610 (0x1202)
Format : PGS
Muxing mode : zlib
Codec ID : S_HDMV/PGS
Codec ID/Info : Picture based subtitle format used on BDs/HD-DVDs
Duration : 1 h 32 min
Bit rate : 41.7 kb/s
Frame rate : 0.457 FPS
Count of elements : 2524
Stream size : 27.5 MiB (0%)
Language : French
Default : No
Forced : No
Original source medium : Blu-ray

Text #4
ID : 9
Format : UTF-8
Codec ID : S_TEXT/UTF8
Codec ID/Info : UTF-8 Plain Text
Duration : 1 h 32 min
Bit rate : 62 b/s
Frame rate : 0.230 FPS
Count of elements : 1273
Stream size : 42.2 KiB (0%)
Language : Spanish
Default : No
Forced : No

Menu
00:00:00.000 : en:Chapter 01
00:04:18.800 : en:Chapter 02
00:09:04.043 : en:Chapter 03
00:12:24.910 : en:Chapter 04
00:16:55.139 : en:Chapter 05
00:20:54.878 : en:Chapter 06
00:25:59.558 : en:Chapter 07
00:31:00.400 : en:Chapter 08
00:35:24.789 : en:Chapter 09
00:40:16.705 : en:Chapter 10
00:44:23.661 : en:Chapter 11
00:50:42.873 : en:Chapter 12
00:55:15.937 : en:Chapter 13
01:00:46.142 : en:Chapter 14
01:04:06.592 : en:Chapter 15
01:08:40.825 : en:Chapter 16
01:12:17.416 : en:Chapter 17
01:17:06.705 : en:Chapter 18
01:22:26.232 : en:Chapter 19
01:24:48.166 : en:Chapter 20


DESCARGA.PNG



⭐ 1 LINK MKV VIP ⭐

Mega.png

Tenemos TODO el material de Club-HD disponible por Mega, enlaces 100% activos y online hasta la fecha

Llévate tus cuentas Mega PRO III gratis con tu membresía VIP!
Todos los posts vivos con links de Mega.
Todo el material de Club-HD desbloqueado y sin publicidad.

Obtén más información sobre nuestras Membresías VIP


LINKS FREE PÚBLICOS

Fireload.png


¡Click aquí para descargar desde Fireload!


1cloudfile.png


¡Click aquí para descargar desde 1cloudfile!

 
Volver