Kung Fu Panda Holiday Special (2010) 720p Dual Latino-Inglés [Subt. Esp-Ing] (Animación)

Maestro Revolver

Well-known member
Miembro del Staff
Administrador
Registro
9 Ago 2012
Mensajes
3.569
Reacciones
59.346
Puntos
113

Reputation:









TÍTULO ORIGINAL: Kung Fu Panda Holiday Special (TV)
AÑO: 2010
DURACIÓN: 25 min.
PAÍS: USA
DIRECTOR: Tim Johnson
GUIÓN: Jonathan Groff, Jon Pollack
REPARTO: Animation
PRODUCTORA: DreamWorks Animation
GÉNERO: Animación. Comedia. Infantil | Artes marciales. Navidad. Mediometraje. Telefilm
: http://www.imdb.com/title/tt1702433/






Po nos sorprende una vez más, en esta ocasion está decidido a organizar una de sus fiestas favoritas: "La navidad".




















La pelicula NO tiene ninguna marca... solo colocamos el nombre de esta web en las capturas






Código:
General
Complete name                            : Kung Fu Panda Holiday Special (2010) 720p Dual Latino-Inglés [Subt. Esp-Ing].mkv
Format                                   : Matroska
Format version                           : Version 4 / Version 2
File size                                : 1.17 GiB
Duration                                 : 25mn 41s
Overall bit rate                         : 6 528 Kbps
Movie name                               : www.club-hd.com --> Kung Fu Panda Holiday Special (2010) 720p Dual Latino-Inglés [Subt. Esp-Ing]
Encoded date                             : UTC 2014-12-24 18:55:37
Writing application                      : mkvmerge v7.1.0 ('Good Love') 64bit built on Jul 27 2014 13:06:55
Writing library                          : libebml v1.3.0 + libmatroska v1.4.1

Video
ID                                       : 1
Format                                   : AVC
Format/Info                              : Advanced Video Codec
Format profile                           : High@L4.1
Format settings, CABAC                   : Yes
Format settings, ReFrames                : 9 frames
Codec ID                                 : V_MPEG4/ISO/AVC
Duration                                 : 25mn 41s
Bit rate                                 : 5 310 Kbps
Width                                    : 1 280 pixels
Height                                   : 720 pixels
Display aspect ratio                     : 16:9
Frame rate mode                          : Constant
Frame rate                               : 23.976 fps
Color space                              : YUV
Chroma subsampling                       : 4:2:0
Bit depth                                : 8 bits
Scan type                                : Progressive
Bits/(Pixel*Frame)                       : 0.240
Stream size                              : 976 MiB (81%)
Title                                    : Kung Fu Panda Holiday Special (2010) 720p Dual Latino-Inglés [Subt. Esp-Ing]
Writing library                          : x264 core 130 r2273 b3065e6
Language                                 : English
Default                                  : Yes
Forced                                   : No

Audio #1
ID                                       : 2
Format                                   : AC-3
Format/Info                              : Audio Coding 3
Mode extension                           : CM (complete main)
Format settings, Endianness              : Big
Codec ID                                 : A_AC3
Duration                                 : 25mn 41s
Bit rate mode                            : Constant
Bit rate                                 : 448 Kbps
Channel(s)                               : 6 channels
Channel positions                        : Front: L C R, Side: L R, LFE
Sampling rate                            : 48.0 KHz
Bit depth                                : 16 bits
Compression mode                         : Lossy
Stream size                              : 82.3 MiB (7%)
Title                                    : Kung Fu Panda Holiday Special (2010) - Español Latino AC3 5.1 - 448 Kbps (DVD)
Language                                 : Spanish
Default                                  : Yes
Forced                                   : No

Audio #2
ID                                       : 3
Format                                   : AC-3
Format/Info                              : Audio Coding 3
Mode extension                           : CM (complete main)
Format settings, Endianness              : Big
Codec ID                                 : A_AC3
Duration                                 : 25mn 41s
Bit rate mode                            : Constant
Bit rate                                 : 640 Kbps
Channel(s)                               : 6 channels
Channel positions                        : Front: L C R, Side: L R, LFE
Sampling rate                            : 48.0 KHz
Bit depth                                : 16 bits
Compression mode                         : Lossy
Stream size                              : 118 MiB (10%)
Title                                    : Kung Fu Panda Holiday Special (2010) - Inglés AC3 5.1 - 640 Kbps
Language                                 : English
Default                                  : No
Forced                                   : No

Text
ID                                       : 4
Format                                   : UTF-8
Codec ID                                 : S_TEXT/UTF8
Codec ID/Info                            : UTF-8 Plain Text
Title                                    : Kung Fu Panda Holiday Special (2010) - Subtítulos Español
Language                                 : Spanish
Default                                  : No
Forced                                   : No

Menu
00:00:00.000                             : en:00:00:00.000
00:05:02.343                             : en:00:05:02.343
00:09:55.011                             : en:00:09:55.011
00:14:59.231                             : en:00:14:59.231
00:21:06.014                             : en:00:21:06.014




Contraseña

Código:
[CENTER][SIZE=5]
www.club-hd.com[/SIZE][/CENTER]








Enlaces de Mega y Fireload solo disponibles para Miembros VIP

Compra tu Membresía VIP y apoya a Club-HD!

ATENCIÓN! Tenemos TODO el material de Club-HD disponible por Mega y Fireload, enlaces 100% activos y online hasta la fecha

Llévate tus cuentas Mega PRO II gratis con tu membresía VIP!
Todos los posts vivos con links de Mega y Fireload.
Todo el material de Club-HD desbloqueado y sin publicidad.

Click Aquí para más información.




Enlaces de Mega y Fireload solo disponibles para Miembros VIP

Compra tu Membresía VIP y apoya a Club-HD!

ATENCIÓN! Tenemos TODO el material de Club-HD disponible por Mega y Fireload, enlaces 100% activos y online hasta la fecha

Llévate tus cuentas Mega PRO II gratis con tu membresía VIP!
Todos los posts vivos con links de Mega y Fireload.
Todo el material de Club-HD desbloqueado y sin publicidad.

Click Aquí para más información.


Enlaces de Mega y Fireload solo disponibles para Miembros VIP

Compra tu Membresía VIP y apoya a Club-HD!

ATENCIÓN! Tenemos TODO el material de Club-HD disponible por Mega y Fireload, enlaces 100% activos y online hasta la fecha

Llévate tus cuentas Mega PRO II gratis con tu membresía VIP!
Todos los posts vivos con links de Mega y Fireload.
Todo el material de Club-HD desbloqueado y sin publicidad.

Click Aquí para más información.


Para ver este contenido oculto, debes dar click en una de las siguientes reacciones : Like Like, Love Love, Haha Haha, Wow Wow, Sad Sad, Angry Angry


Para ver este contenido oculto, debes dar click en una de las siguientes reacciones : Like Like, Love Love, Haha Haha, Wow Wow, Sad Sad, Angry Angry


Para ver este contenido oculto, debes dar click en una de las siguientes reacciones : Like Like, Love Love, Haha Haha, Wow Wow, Sad Sad, Angry Angry
 
Última edición:

shurato

Member
Registro
28 Ago 2012
Mensajes
328
Reacciones
6
Puntos
18

Reputation:

gracias x el aporte... Y FELIZ NAVIDAD... A TODOS DE CLUB HD... xq sino fuera x ustedes... no tendriaos el placer de tener las peliculas q algunos recordamos nomas... GRACIAS... GRACIAS...
 

betosax11

New member
Registro
29 Ago 2012
Mensajes
332
Reacciones
7
Puntos
0

Reputation:

Muchas Gracias y
les deseo una Feliz Navidad a este grupo humano que conforma Club-hd
gracias a ustedes podemos disfrutasr de los mejores videos de buena calidad que hay en la red
les estoy muy agradecido
 

Usuarios Que Están Viendo Este Tema (Total: 1, Miembros: 0, Invitados: 1)

Arriba