• Buenos dias amigos del club. Les queremos avisar que ya recuperamos el acceso a las webs de las Membresías VIP y del Paste. Asi que ya pueden comprar sus membresías y descargar todos los estrenos nuevamente.

La Flor De Mi Secreto (1995) 1080p BDRip Audio Español (Drama)

Max

Admin

Administrador
Registro
8 Ago 2012
Mensajes
6.450
Reacciones (ptje)
27.106

La_Flor_De_Mi_Secreto_POSTER.jpg



TÍTULO ORIGINAL: La flor de mi secreto
AÑO: 1995
DURACIÓN: 98 min.
PAÍS: España
DIRECTOR: Pedro Almodóvar
GUIÓN: Pedro Almodóvar
MÚSICA: Alberto Iglesias
FOTOGRAFÍA: Affonso Beato
REPARTO: Marisa Paredes, Imanol Arias, Juan Echanove, Carmen Elías, Rossy de Palma, Chus Lampreave, Kiti Manver, Jordi Mollà, Nancho Novo, Joaquín Cortés
PRODUCTORA: El Deseo S.A.
GÉNERO: Drama | Melodrama

IMDb.png
http://www.imdb.com/title/tt0113083/?ref_=fn_al_tt_1




SINOPSIS.png


Leo Macías es una escritora de novela rosa que se oculta tras el seudónimo de Amanda Gris. Obligada por contrato a entregar tres novelas al año, Leo lleva meses incumpliéndolo; en vez de novela rosa le sale negra. Y todo porque su marido Paco, que es militar, está participando en una misión de paz en Bosnia. Antes de su partida, la pareja vivía una de sus peores crisis. El aplazamiento de la solución a sus problemas matrimoniales provoca en Leo una fragilidad y una inseguridad que invade todos los aspectos de su vida. El amor de Paco ha muerto, pero ella lo defiende ciegamente y se aferra a cualquier esperanza, por absurda que sea.




YOUTUBE_LOGO.png






CAPTURAS.png


La_Flor_De_Mi_Secreto_CAPTURA-1.jpg


La_Flor_De_Mi_Secreto_CAPTURA-2.jpg


La_Flor_De_Mi_Secreto_CAPTURA-3.jpg


La_Flor_De_Mi_Secreto_CAPTURA-4.jpg


La_Flor_De_Mi_Secreto_CAPTURA-5.jpg


La_Flor_De_Mi_Secreto_CAPTURA-6.jpg


La_Flor_De_Mi_Secreto_CAPTURA-7.jpg





DATOS_TECNICOS.png


Código:
General
Complete name                            : La Flor De Mi Secreto (1995) 1080p BDRip Audio Español.mkv
Format                                   : Matroska
Format version                           : Version 4 / Version 2
File size                                : 6.33 GiB
Duration                                 : 1h 45mn
Overall bit rate                         : 8 583 Kbps
Movie name                               : www.club-hd.com --> La Flor De Mi Secreto (1995) 1080p BDRip Audio Español
Encoded date                             : UTC 2010-02-22 21:41:31
Writing application                      : mkvmerge v5.9.0 ('On The Loose') built on Dec  9 2012 15:37:01
Writing library                          : libebml v1.3.0 + libmatroska v1.4.0

Video
ID                                       : 1
Format                                   : AVC
Format/Info                              : Advanced Video Codec
Format profile                           : [email protected]
Format settings, CABAC                   : Yes
Format settings, ReFrames                : 2 frames
Codec ID                                 : V_MPEG4/ISO/AVC
Duration                                 : 1h 45mn
Bit rate                                 : 7 772 Kbps
Width                                    : 1 920 pixels
Height                                   : 1 080 pixels
Display aspect ratio                     : 16:9
Frame rate mode                          : Constant
Frame rate                               : 24.000 fps
Color space                              : YUV
Chroma subsampling                       : 4:2:0
Bit depth                                : 8 bits
Scan type                                : Progressive
Bits/(Pixel*Frame)                       : 0.156
Stream size                              : 5.73 GiB (91%)
Title                                    : www.club-hd.com --> La Flor De Mi Secreto (1995) 1080p BDRip Audio Español
Writing library                          : x264 core
Language                                 : Spanish
Default                                  : Yes
Forced                                   : No
Color primaries                          : BT.709
Transfer characteristics                 : BT.709
Matrix coefficients                      : BT.709

Audio
ID                                       : 2
Format                                   : AC-3
Format/Info                              : Audio Coding 3
Mode extension                           : CM (complete main)
Format settings, Endianness              : Big
Codec ID                                 : A_AC3
Duration                                 : 1h 45mn
Bit rate mode                            : Constant
Bit rate                                 : 640 Kbps
Channel(s)                               : 2 channels
Channel positions                        : Front: L R
Sampling rate                            : 48.0 KHz
Bit depth                                : 16 bits
Compression mode                         : Lossy
Stream size                              : 483 MiB (7%)
Title                                    : La Flor De Mi Secreto (1995) - Español AC3 2.0
Language                                 : Spanish
Default                                  : Yes
Forced                                   : No




DESCARGA.png



google-drive-vip.png


Tenemos TODO el material de Club-HD disponible por Mega, enlaces 100% activos y online hasta la fecha

Llévate tus cuentas Mega PRO III gratis con tu membresía VIP!
Todos los posts vivos con links de Mega.
Todo el material de Club-HD desbloqueado y sin publicidad.

Obtén más información sobre nuestras Membresías VIP




MEGA.jpg

Tenemos TODO el material de Club-HD disponible por Mega, enlaces 100% activos y online hasta la fecha

Llévate tus cuentas Mega PRO III gratis con tu membresía VIP!
Todos los posts vivos con links de Mega.
Todo el material de Club-HD desbloqueado y sin publicidad.

Obtén más información sobre nuestras Membresías VIP



UPLOADED.NET_BANNER.png

Para ver este contenido oculto, debes dar click en el botón"Like", o cualquiera de las otras reacciones:

Me Gusta Me Gusta, Me Encanta Me Encanta, Jaja Jaja, Wow Wow, Triste Triste, Molesto Molesto
 
Última edición por un moderador:

En estos momentos se está haciendo el ripeo para el m-720p.

Saludos amigos!

Max

 
Max, de verdad que me has hecho el día!!! Abro la pagina y me encuentro esta megasorpresa amigo!!! Genial encontrarme este aporte con esta película, como buen fan de Almodovar esta pelicula es una de las mejores asi como varias de él, a modo personal vale mucho la pena bajarla en 1080p para la colección. Muchisimas gracias amigo y empezando a descargar!!! Mil gracias!!!
 
Gracias Master por esta excelente película, me gustan mucho las películas de Almodóvar.:aplausos::aplausos:

Gracias Max.:aplausos:
 
Volver