Lady and the Tramp (1955) m-1080p BDRip Dual Latino-Inglés [Subt. Esp] (Animación)

Maestro Revolver

Well-known member
Miembro del Staff
Administrador
Registro
9 Ago 2012
Mensajes
3.567








TÍTULO ORIGINAL: Lady and the Tramp
AÑO: 1955
DURACIÓN: 75 min.
PAÍS: USA
DIRECTOR: Clyde Geronimi, Hamilton Luske, Wilfred Jackson
GUIÓN: Erdman Penner, Joe Rinaldi, Ralph Wright, Don DaGradi
REPARTO: Animation
PRODUCTORA: Walt Disney Pictures
GÉNERO: Animación. Infantil | Perros/Lobos
: http://www.imdb.com/title/tt0048280/


Premios: 1955: Premios David di Donatello: Mejor producción extranjera
1955: BAFTA: Nominada a mejor película de animación






Reina es una preciosa perrita de pura raza que vive feliz en su hogar. Isabel y Jaime, la miman mucho y ella corresponde feliz a sus cuidados. Sin embargo, el día en que sus dueños deciden hacer un viaje, la vida de Reina se ve alterada; la llegada de la tía Clara con sus gatos no provoca más que sobresaltos. Menos mal que conoce a Golfo, un perro vagabundo muy simpático
























La pelicula NO tiene ninguna marca... solo colocamos el nombre de esta web en las capturas






Código:
General
Format                                   : Matroska
Format version                           : Version 2
File size                                : 3.08 GiB
Duration                                 : 1h 16mn
Overall bit rate                         : 5 773 Kbps
Movie name                               : www.club-hd.com
Encoded date                             : UTC 2013-07-19 02:34:57
Writing application                      : mkvmerge v5.7.0 ('The Whirlwind') built on Jul  8 2012 20:08:51
Writing library                          : libebml v1.2.3 + libmatroska v1.3.0

Video
ID                                       : 1
Format                                   : AVC
Format/Info                              : Advanced Video Codec
Format profile                           : Main@L4.0
Format settings, CABAC                   : Yes
Format settings, ReFrames                : 4 frames
Codec ID                                 : V_MPEG4/ISO/AVC
Duration                                 : 1h 16mn
Bit rate                                 : 4 500 Kbps
Width                                    : 1 920 pixels
Height                                   : 1 080 pixels
Display aspect ratio                     : 16:9
Frame rate mode                          : Constant
Frame rate                               : 23.976 fps
Color space                              : YUV
Chroma subsampling                       : 4:2:0
Bit depth                                : 8 bits
Scan type                                : Progressive
Bits/(Pixel*Frame)                       : 0.091
Stream size                              : 2.34 GiB (76%)
Title                                    : www.club-hd.com
Writing library                          : x264 core 112
Language                                 : English
Default                                  : Yes
Forced                                   : No
Color primaries                          : BT.709
Transfer characteristics                 : BT.709
Matrix coefficients                      : BT.709

Audio #1
ID                                       : 2
Format                                   : AC-3
Format/Info                              : Audio Coding 3
Mode extension                           : CM (complete main)
Format settings, Endianness              : Big
Codec ID                                 : A_AC3
Duration                                 : 1h 16mn
Bit rate mode                            : Constant
Bit rate                                 : 640 Kbps
Channel(s)                               : 6 channels
Channel positions                        : Front: L C R, Side: L R, LFE
Sampling rate                            : 48.0 KHz
Bit depth                                : 16 bits
Compression mode                         : Lossy
Stream size                              : 350 MiB (11%)
Title                                    : www.club-hd.com  >>  Latino
Language                                 : Spanish
Default                                  : Yes
Forced                                   : No

Audio #2
ID                                       : 3
Format                                   : AC-3
Format/Info                              : Audio Coding 3
Mode extension                           : CM (complete main)
Format settings, Endianness              : Big
Codec ID                                 : A_AC3
Duration                                 : 1h 16mn
Bit rate mode                            : Constant
Bit rate                                 : 640 Kbps
Channel(s)                               : 6 channels
Channel positions                        : Front: L C R, Side: L R, LFE
Sampling rate                            : 48.0 KHz
Bit depth                                : 16 bits
Compression mode                         : Lossy
Stream size                              : 350 MiB (11%)
Title                                    : www.club-hd.com  >>  Inglés
Language                                 : English
Default                                  : No
Forced                                   : No

Text
ID                                       : 4
Format                                   : UTF-8
Codec ID                                 : S_TEXT/UTF8
Codec ID/Info                            : UTF-8 Plain Text
Language                                 : Spanish
Default                                  : No
Forced                                   : No

Menu
00:00:00.000                             : en:Chapter 1
00:03:36.299                             : en:Chapter 2
00:09:56.470                             : en:Chapter 3
00:14:42.798                             : en:Chapter 4
00:18:44.998                             : en:Chapter 5
00:23:03.882                             : en:Chapter 6
00:27:33.276                             : en:Chapter 7
00:29:08.663                             : en:Chapter 8
00:32:45.129                             : en:Chapter 9
00:35:52.733                             : en:Chapter 10
00:40:20.626                             : en:Chapter 11
00:43:27.479                             : en:Chapter 12
00:46:48.972                             : en:Chapter 13
00:49:42.562                             : en:Chapter 14
00:53:40.800                             : en:Chapter 15
00:55:33.079                             : en:Chapter 16
00:58:24.000                             : en:Chapter 17
01:00:52.982                             : en:Chapter 18
01:04:43.629                             : en:Chapter 19
01:05:40.770                             : en:Chapter 20
01:09:56.650                             : en:Chapter 21
01:12:41.148                             : en:Chapter 22
01:15:53.340                             : en:Chapter 23








Enlaces de Mega y Google Drive solo disponibles para Miembros VIP

Compra tu Membresía VIP y apoya a Club-HD!

ATENCIÓN! Tenemos TODO el material de Club-HD disponible por Mega y Google Drive, enlaces 100% activos y online hasta la fecha

Llévate tus cuentas Mega PRO III gratis con tu membresía VIP!
Todos los posts vivos con links de Mega y Google Drive.
Todo el material de Club-HD desbloqueado y sin publicidad.

Click Aquí para más información.



Para ver este contenido oculto, debes dar click en una de las siguientes reacciones : Like Like, Love Love, Haha Haha, Wow Wow, Sad Sad, Angry Angry
 
Última edición por un moderador:

zacygal

Well-known member
Registro
3 Sep 2012
Mensajes
1.515
Edad
50
Grax Capo, estas películas de Animación sabes cuantas veces nos sacan de apuros en la casa, en particular a los que tenemos hijos pequeños, se agradece infintamente estos aportes, y mas a un si son clásicos como este ...
 

karla lee

New member
Registro
21 Sep 2012
Mensajes
71
chicos de verdad una humilde opinión, hay tantas películas, de dibujos animados, se que su tarea es ardua pero traten de subir mas de este genero, que prácticamente, nos encantan a todos. Gracias chicos por el esfuerzo que hacen día a día para traernos lo mejor, se les quiere hartooooo.
 

Usuarios Que Están Viendo Este Tema (Total: 1, Miembros: 0, Invitados: 1)

Quién Leyó Este Tema (Total Miembros: 1)

Arriba