Lady Gaga - The Monster Ball Tour At Madison Square Garden (2011) 720p BDRip [AC3 5.1] (Concierto)

Maestro Revolver

Administrador
Registro
9 Ago 2012
Mensajes
3.157
Reacciones (ptje)
55.041

Lady-Gaga-2011.jpg





SINOPSIS.png


Lady Gaga presenta The Monster Ball Tour: en el Madison Square Garden— es un concierto de la cantante estadounidense Lady Gaga grabado el 21 y 22 de febrero de 2011 que presenta su segunda gira mundial, The Monster Ball Tour. Fue filmado en el Madison Square Garden, Nueva York, Estados Unidos, y fue emitido por primera vez el 7 de mayo de 2011 por el canal HBO, un día después del último show de la gira. Fue lanzado en DVD y Blu-ray el 21 de noviembre de 2011.



Track List:

01. Intro
02. Dance In The Dark
03. Glitter & Grease
04. Just Dance
05. Beautiful, Dirty, Rich
06. The Fame
07. LoveGame
08. Boys, Boys, Boys
09. Money Honey
10. Telephone
11. Speechless
12. Yoü And I
13. So Happy I Could Die
14. Monster
15. Teeth
16. Alejandro
17. Poker Face
18. Paparazzi
19. Bad Romance
20. Born This Way
21. Born This Way A Cappella
22. Backstage At The Monster Ball
23. Photo Gallery / Lady Gaga / The Monster Ball Tour




TRAILER.png






CAPTURAS.png


1.jpg


2.jpg


3.jpg


4.jpg


5.jpg


6.jpg


7.jpg


8.jpg





DATOS_TECNICOS.png


Código:
General
Format                                   : Matroska
Format version                           : Version 2
File size                                : 6.51 GiB
Duration                                 : 1h 54mn
Overall bit rate                         : 8 146 Kbps
Movie name                               : www.club-hd.com
Encoded date                             : UTC 2012-12-30 06:49:18
Writing application                      : mkvmerge v5.7.0 ('The Whirlwind') built on Jul  8 2012 20:08:51
Writing library                          : libebml v1.2.3 + libmatroska v1.3.0

Video
ID                                       : 1
Format                                   : AVC
Format/Info                              : Advanced Video Codec
Format profile                           : [email protected]
Format settings, CABAC                   : Yes
Format settings, ReFrames                : 8 frames
Codec ID                                 : V_MPEG4/ISO/AVC
Duration                                 : 1h 54mn
Bit rate                                 : 7 505 Kbps
Width                                    : 1 280 pixels
Height                                   : 720 pixels
Display aspect ratio                     : 16:9
Frame rate mode                          : Constant
Frame rate                               : 23.976 fps
Color space                              : YUV
Chroma subsampling                       : 4:2:0
Bit depth                                : 8 bits
Scan type                                : Progressive
Bits/(Pixel*Frame)                       : 0.340
Stream size                              : 5.87 GiB (90%)
Title                                    : www.club-hd.com
Writing library                          : x264 core 116 r2074 2641b9e
Language                                 : English
Default                                  : Yes
Forced                                   : No

Audio
ID                                       : 2
Format                                   : AC-3
Format/Info                              : Audio Coding 3
Mode extension                           : CM (complete main)
Format settings, Endianness              : Big
Codec ID                                 : A_AC3
Duration                                 : 1h 54mn
Bit rate mode                            : Constant
Bit rate                                 : 640 Kbps
Channel(s)                               : 6 channels
Channel positions                        : Front: L C R, Side: L R, LFE
Sampling rate                            : 48.0 KHz
Bit depth                                : 16 bits
Compression mode                         : Lossy
Stream size                              : 524 MiB (8%)
Title                                    : www.club-hd.com
Language                                 : English
Default                                  : Yes
Forced                                   : No




Descarga.png



MEGA.jpg

Tenemos TODO el material de Club-HD disponible por Mega, enlaces 100% activos y online hasta la fecha

Llévate tus cuentas Mega PRO III gratis con tu membresía VIP!
Todos los posts vivos con links de Mega.
Todo el material de Club-HD desbloqueado y sin publicidad.

Obtén más información sobre nuestras Membresías VIP



UPLOADED.TO_BANNER.png

Para ver este contenido oculto, debes dar click en el botón"Like", o cualquiera de las otras reacciones:

Me Gusta Me Gusta, Me Encanta Me Encanta, Jaja Jaja, Wow Wow, Triste Triste, Molesto Molesto
 
Última edición por un moderador:
gracias compadre la seccion de conciertos estava un poco botada, se agradece un monton!!
 
Gracias R21 buenos conciertos, no tendrá por casualidad el ultimo concierto de Selena , se lo agradecería un montononon de veces Saludos
 
Volver