Lara Croft: Tomb Raider (2001) 720p BDRip Dual Latino-Inglés [Subt. Esp] (Aventuras. Acción. Fantástico)

Maestro Revolver

Administrador
Registro
9 Ago 2012
Mensajes
3.157
Reacciones (ptje)
54.886


Tomb-Raider.jpg




FichaTecnica.jpg


TÍTULO ORIGINAL: Lara Croft: Tomb Raider
AÑO: 2001
DURACIÓN: 105 min.
PAÍS: USA
DIRECTOR: Simon West
GUIÓN: Patrick Massett & John Zinman (Argumento: Sara B. Cooper, Mike Webb, Michael Colleary)
REPARTO: Angelina Jolie, Jon Voight, Iain Glen, Noah Taylor, Daniel Craig, Leslie Phillips, Mark Collie, Chris Barrie
PRODUCTORA: Paramount Pictures / Mutual Film Company
GÉNERO: Aventuras. Acción. Fantástico | Videojuego
imdb-logo.png
: http://www.imdb.com/title/tt0146316/




Sinopsis.jpg


Miembro de una rica familia aristocrática británica, Lara Croft se dedica a la búsqueda de tesoros de valor arqueológico al igual que su difunto padre. Experta en la lucha cuerpo a cuerpo, en armas y dominio de varios idiomas, emprenderá la búsqueda del "triángulo de la luz", un antiguo talismán que permite a quien lo posea dominar el tiempo.




Trailer.jpg






Capturas.jpg


1.jpg


2.jpg


3.jpg


4.jpg



La pelicula NO tiene ninguna marca... solo colocamos el nombre de esta web en las capturas




MediaInfo.jpg


Código:
General
Format                                   : Matroska
Format version                           : Version 2
File size                                : 2.91 GiB
Duration                                 : 1h 40mn
Overall bit rate                         : 4 143 Kbps
Movie name                               : www.club-hd.com
Encoded date                             : UTC 2013-10-25 01:11:21
Writing application                      : mkvmerge v5.7.0 ('The Whirlwind') built on Jul  8 2012 20:08:51
Writing library                          : libebml v1.2.3 + libmatroska v1.3.0

Video
ID                                       : 1
Format                                   : AVC
Format/Info                              : Advanced Video Codec
Format profile                           : [email protected]
Format settings, CABAC                   : Yes
Format settings, ReFrames                : 5 frames
Codec ID                                 : V_MPEG4/ISO/AVC
Duration                                 : 1h 40mn
Bit rate                                 : 3 245 Kbps
Width                                    : 1 280 pixels
Height                                   : 536 pixels
Display aspect ratio                     : 2.40:1
Frame rate mode                          : Constant
Frame rate                               : 23.976 fps
Color space                              : YUV
Chroma subsampling                       : 4:2:0
Bit depth                                : 8 bits
Scan type                                : Progressive
Bits/(Pixel*Frame)                       : 0.197
Stream size                              : 2.22 GiB (76%)
Title                                    : www.club-hd.com
Writing library                          : x264 core 128 r2216 198a7ea
Language                                 : English
Default                                  : Yes
Forced                                   : No

Audio #1
ID                                       : 2
Format                                   : AC-3
Format/Info                              : Audio Coding 3
Mode extension                           : CM (complete main)
Format settings, Endianness              : Big
Codec ID                                 : A_AC3
Duration                                 : 1h 40mn
Bit rate mode                            : Constant
Bit rate                                 : 448 Kbps
Channel(s)                               : 6 channels
Channel positions                        : Front: L C R, Side: L R, LFE
Sampling rate                            : 48.0 KHz
Bit depth                                : 16 bits
Compression mode                         : Lossy
Delay relative to video                  : 12ms
Stream size                              : 322 MiB (11%)
Title                                    : www.club-hd.com  >>  Latino
Language                                 : Spanish
Default                                  : Yes
Forced                                   : No

Audio #2
ID                                       : 3
Format                                   : AC-3
Format/Info                              : Audio Coding 3
Mode extension                           : CM (complete main)
Format settings, Endianness              : Big
Codec ID                                 : A_AC3
Duration                                 : 1h 40mn
Bit rate mode                            : Constant
Bit rate                                 : 448 Kbps
Channel(s)                               : 6 channels
Channel positions                        : Front: L C R, Side: L R, LFE
Sampling rate                            : 48.0 KHz
Bit depth                                : 16 bits
Compression mode                         : Lossy
Stream size                              : 322 MiB (11%)
Title                                    : www.club-hd.com  >>  Inglés
Language                                 : English
Default                                  : No
Forced                                   : No

Text #1
ID                                       : 4
Format                                   : UTF-8
Codec ID                                 : S_TEXT/UTF8
Codec ID/Info                            : UTF-8 Plain Text
Title                                    : Forzados
Language                                 : Spanish
Default                                  : Yes
Forced                                   : No

Text #2
ID                                       : 5
Format                                   : UTF-8
Codec ID                                 : S_TEXT/UTF8
Codec ID/Info                            : UTF-8 Plain Text
Title                                    : Completos
Language                                 : Spanish
Default                                  : No
Forced                                   : No

Menu
00:00:00.000                             : en:00:00:00.000
00:07:21.858                             : en:00:07:21.858
00:15:03.402                             : en:00:15:03.402
00:23:15.394                             : en:00:23:15.394
00:34:44.708                             : en:00:34:44.708
00:43:09.587                             : en:00:43:09.587
00:50:02.875                             : en:00:50:02.875
00:59:45.165                             : en:00:59:45.165
01:07:52.694                             : en:01:07:52.694
01:15:57.887                             : en:01:15:57.887
01:22:31.321                             : en:01:22:31.321
01:31:21.851                             : en:01:31:21.851




Descarga.jpg



MEGA.jpg

Tenemos TODO el material de Club-HD disponible por Mega, enlaces 100% activos y online hasta la fecha

Llévate tus cuentas Mega PRO III gratis con tu membresía VIP!
Todos los posts vivos con links de Mega.
Todo el material de Club-HD desbloqueado y sin publicidad.

Obtén más información sobre nuestras Membresías VIP



UPLOADED_BANNER.png

Para ver este contenido oculto, debes dar click en el botón"Like", o cualquiera de las otras reacciones:

Me Gusta Me Gusta, Me Encanta Me Encanta, Jaja Jaja, Wow Wow, Triste Triste, Molesto Molesto

 
Última edición por un moderador:
H0l4HOLA MASTER, TANTO TIEMPO, ESTAS DOS SEMANAS SIN PODER ENTRAR A LA PÁGINA ME RESULTARON UNA ETERNIDAD.
ME ALEGRA MUCHO DE QUE ESTE DE NUEVO TODO HABILITADO. d4nce2 dance3 d4nce2


Esta es una Muy Buena Película :dplgar:, me gustaron todos los Juegos gamer4 de este Gran Clasico, por lo que no me podía faltar esta peli en mi colección de ACCIÓN
MIL GRACIAS REVOLVER :aplausos::aplausos::aplausos::aplausos::aplausos:
Desc_g_
 
007 vs lara ,jajajajaja muy buena pelicula muy agusto de que el club este de regreso!
 
Volver