Las aventuras de Tadeo Jones (2012) 720p BDRip Audio Latino (Animación)

Maestro Revolver

Miembro del Staff
Administrador
Registro
9 Ago 2012
Mensajes
3.157








TÍTULO ORIGINAL: Las aventuras de Tadeo Jones (Tadeo Jones y el tesoro de los Incas)
AÑO: 2012
DURACIÓN: 90 min.
PAÍS: España
DIRECTOR: Enrique Gato
GUIÓN: Neil Landau (Personaje: Enrique Gato)
REPARTO: Animation
PRODUCTORA: LightBox Entertainment / Toro Pictures / IkiruFilms / StudioCanal
GÉNERO: Animación. Comedia. Aventuras. Infantil | 3-D
: http://www.imdb.com/title/tt1764625/






Debido a un malentendido, a Tadeo, un albañil soñador, lo confunden con un famoso arqueólogo y lo envían en una expedición al Perú. Con la ayuda de su fiel perro Jeff, una intrépida profesora, un loro mudo y un buscavidas, intentará salvar la mítica ciudad perdida de los Incas de una malvada empresa de cazatesoros. Adaptación del corto que ganó un Goya en 2004.




















La pelicula NO tiene ninguna marca... solo colocamos el nombre de esta web en las capturas






Código:
General
Format                                   : Matroska
Format version                           : Version 2
File size                                : 3.59 GiB
Duration                                 : 1h 32mn
Overall bit rate                         : 5 585 Kbps
Encoded date                             : UTC 2013-06-27 22:22:42
Writing application                      : mkvmerge v5.7.0 ('The Whirlwind') built on Jul  8 2012 20:08:51
Writing library                          : libebml v1.2.3 + libmatroska v1.3.0

Video
ID                                       : 1
Format                                   : AVC
Format/Info                              : Advanced Video Codec
Format profile                           : Baseline@L3.1
Format settings, CABAC                   : No
Format settings, ReFrames                : 1 frame
Format settings, GOP                     : M=1, N=12
Codec ID                                 : V_MPEG4/ISO/AVC
Duration                                 : 1h 32mn
Bit rate                                 : 4 834 Kbps
Width                                    : 1 280 pixels
Height                                   : 688 pixels
Display aspect ratio                     : 1.85:1
Original display aspect ratio            : 1.85:1
Frame rate mode                          : Constant
Frame rate                               : 24.000 fps
Color space                              : YUV
Chroma subsampling                       : 4:2:0
Bit depth                                : 8 bits
Scan type                                : Progressive
Bits/(Pixel*Frame)                       : 0.229
Stream size                              : 3.11 GiB (87%)
Language                                 : Spanish
Default                                  : Yes
Forced                                   : No

Audio
ID                                       : 2
Format                                   : AC-3
Format/Info                              : Audio Coding 3
Mode extension                           : CM (complete main)
Format settings, Endianness              : Big
Codec ID                                 : A_AC3
Duration                                 : 1h 32mn
Bit rate mode                            : Constant
Bit rate                                 : 640 Kbps
Channel(s)                               : 6 channels
Channel positions                        : Front: L C R, Side: L R, LFE
Sampling rate                            : 48.0 KHz
Bit depth                                : 16 bits
Compression mode                         : Lossy
Stream size                              : 421 MiB (11%)
Language                                 : Spanish
Default                                  : Yes
Forced                                   : No

Menu
00:00:00.000                             : en:(01)00:00:00:000
00:08:02.750                             : en:(02)00:08:02:750
00:15:26.875                             : en:(03)00:15:26:875
00:21:31.083                             : en:(04)00:21:31:083
00:30:28.333                             : en:(05)00:30:28:333
00:36:06.000                             : en:(06)00:36:06:000
00:44:17.166                             : en:(07)00:44:17:166
00:53:29.958                             : en:(08)00:53:29:958
01:04:51.458                             : en:(09)01:04:51:458
01:09:21.333                             : en:(10)01:09:21:333
01:15:15.250                             : en:(11)01:15:15:250
01:23:11.125                             : en:(12)01:23:11:125
01:32:08.625                             : en:(13)01:32:08:625








Enlaces de Mega y Google Drive solo disponibles para Miembros VIP

Compra tu Membresía VIP y apoya a Club-HD!

ATENCIÓN! Tenemos TODO el material de Club-HD disponible por Mega y Google Drive, enlaces 100% activos y online hasta la fecha

Llévate tus cuentas Mega PRO III gratis con tu membresía VIP!
Todos los posts vivos con links de Mega y Google Drive.
Todo el material de Club-HD desbloqueado y sin publicidad.

Click Aquí para más información.



Para ver este contenido oculto, debes dar click en una de las siguientes reacciones : Like Like, Love Love, Haha Haha, Wow Wow, Sad Sad, Angry Angry

 
Última edición por un moderador:

Usuarios Que Están Viendo Este Tema (Total: 1, Miembros: 0, Invitados: 1)

Quién Leyó Este Tema (Total Miembros: 4)

Arriba