Last Vegas (2013) 720p BDRip Audio Inglés [Subt. Esp] (Comedia)

Maestro Revolver

Administrador
Registro
9 Ago 2012
Mensajes
3.157
Reacciones (ptje)
54.925


Last-Vegas.jpg




FichaTecnica.jpg


TÍTULO ORIGINAL: Last Vegas
AÑO: 2013
DURACIÓN: 105 min.
PAÍS: USA
DIRECTOR: Jon Turteltaub
GUIÓN: Adam Brooks, Dan Fogelman
REPARTO: Morgan Freeman, Michael Douglas, Robert De Niro, Kevin Kline, Mary Steenburgen, Jerry Ferrara, Romany Malco, Ric Reitz, April Billingsley, Phillip Wampler, Dane Davenport, Noah Harden, Ty Izquierdo
PRODUCTORA: Mandate Pictures / CBS Films / Gidden Media
GÉNERO: Comedia | Amistad. Vejez
imdb-logo.png
: http://www.imdb.com/title/tt1204975/




Sinopsis.jpg


Con el paso del tiempo, cuatro hombres que fueron amigos en los años cincuenta siguieron caminos muy distintos. Cuando el único que quedaba soltero decide casarse (Douglas), se reúnen todos en Las Vegas para celebrarlo.




Trailer.jpg






Capturas.jpg


1.jpg


2.jpg


3.jpg


4.jpg


5.jpg


6.jpg


La pelicula NO tiene ninguna marca... solo colocamos el nombre de esta web en las capturas




MediaInfo.jpg


Código:
General
Format                                   : Matroska
Format version                           : Version 2
File size                                : 3.59 GiB
Duration                                 : 1h 44mn
Overall bit rate                         : 4 890 Kbps
Movie name                               : www.club-hd.com
Encoded date                             : UTC 2014-01-15 00:19:37
Writing application                      : mkvmerge v5.7.0 ('The Whirlwind') built on Jul  8 2012 20:08:51
Writing library                          : libebml v1.2.3 + libmatroska v1.3.0

Video
ID                                       : 1
Format                                   : AVC
Format/Info                              : Advanced Video Codec
Format profile                           : [email protected]
Format settings, CABAC                   : Yes
Format settings, ReFrames                : 5 frames
Muxing mode                              : Header stripping
Codec ID                                 : V_MPEG4/ISO/AVC
Duration                                 : 1h 44mn
Bit rate                                 : 4 442 Kbps
Width                                    : 1 280 pixels
Height                                   : 536 pixels
Display aspect ratio                     : 2.40:1
Frame rate mode                          : Constant
Frame rate                               : 23.976 fps
Color space                              : YUV
Chroma subsampling                       : 4:2:0
Bit depth                                : 8 bits
Scan type                                : Progressive
Bits/(Pixel*Frame)                       : 0.270
Stream size                              : 3.19 GiB (89%)
Title                                    : www.club-hd.com
Writing library                          : x264 core 140 r2377 1ca7bb9
Language                                 : English
Default                                  : Yes
Forced                                   : No

Audio
ID                                       : 2
Format                                   : AC-3
Format/Info                              : Audio Coding 3
Mode extension                           : CM (complete main)
Format settings, Endianness              : Big
Muxing mode                              : Header stripping
Codec ID                                 : A_AC3
Duration                                 : 1h 44mn
Bit rate mode                            : Constant
Bit rate                                 : 448 Kbps
Channel(s)                               : 6 channels
Channel positions                        : Front: L C R, Side: L R, LFE
Sampling rate                            : 48.0 KHz
Bit depth                                : 16 bits
Compression mode                         : Lossy
Stream size                              : 336 MiB (9%)
Title                                    : www.club-hd.com
Language                                 : English
Default                                  : Yes
Forced                                   : No

Text
ID                                       : 3
Format                                   : UTF-8
Codec ID                                 : S_TEXT/UTF8
Codec ID/Info                            : UTF-8 Plain Text
Title                                    : www.club-hd.com
Language                                 : Spanish
Default                                  : Yes
Forced                                   : No

Menu
00:00:00.000                             : en:00:00:00.000
00:03:03.392                             : en:00:03:03.392
00:10:25.458                             : en:00:10:25.458
00:20:38.863                             : en:00:20:38.863
00:29:31.103                             : en:00:29:31.103
00:41:30.154                             : en:00:41:30.154
00:49:40.060                             : en:00:49:40.060
00:57:18.977                             : en:00:57:18.977
01:05:28.633                             : en:01:05:28.633
01:10:08.079                             : en:01:10:08.079
01:14:33.302                             : en:01:14:33.302
01:18:06.682                             : en:01:18:06.682
01:21:23.378                             : en:01:21:23.378
01:27:03.135                             : en:01:27:03.135
01:34:43.386                             : en:01:34:43.386
01:40:51.045                             : en:01:40:51.045




Descarga.jpg



MEGA.jpg

Tenemos TODO el material de Club-HD disponible por Mega, enlaces 100% activos y online hasta la fecha

Llévate tus cuentas Mega PRO III gratis con tu membresía VIP!
Todos los posts vivos con links de Mega.
Todo el material de Club-HD desbloqueado y sin publicidad.

Obtén más información sobre nuestras Membresías VIP



UPLOADED_BANNER.png

Para ver este contenido oculto, debes dar click en el botón"Like", o cualquiera de las otras reacciones:

Me Gusta Me Gusta, Me Encanta Me Encanta, Jaja Jaja, Wow Wow, Triste Triste, Molesto Molesto

 
Última edición por un moderador:
Desc_g_

Otro estreno!!! :OHHH:

Me lo llevo a ver que tal, vi el trailer en el cine y se ve buena y divertida :p Ademas tiene un buen reparto, a ver que tal.

Muchas Gracias!!!

Saludo :D
 
graciassss...esta peli la queria ver desde q vi por primera vez el trailer.
 
Volver