Le pacte des loups (2001) Director's Cut 720p BDRip Audio Francés [Subt. Esp] (Aventura. Fantástico. Terror)

Maestro Revolver

Administrador
Registro
9 Ago 2012
Mensajes
3.157
Reacciones (ptje)
55.166


Le-Pacte-Des-Loups.jpg




FichaTecnica.jpg


TÍTULO ORIGINAL: Le pacte des loups
AÑO: 2001
DURACIÓN: 142 min.
PAÍS: Francia
DIRECTOR: Christophe Gans
GUIÓN: Stephen Cabel
REPARTO: Samuel Le Bihan, Vincent Cassel, Emilie Dequenne, Monica Bellucci, Jeremie Renier, Mark Dacascos, Jean Yanne, Jean-François Stevenin, Jacques Perrin, Johan Leysen, Bernard Farcy, Bernard Fresson
PRODUCTORA: Studio Canal / Davis Films / TF1 Films Production
GÉNERO: Aventuras. Fantástico. Terror | Siglo XVIII. Monstruos. Artes marciales
imdb-logo.png
: http://www.imdb.com/title/tt0237534/

Premios: 2001: Premios César: Mejor vestuario. 4 nominaciones




Sinopsis.jpg


Francia, siglo XVIII. Una monstruosa criatura devora salvajemente a los habitantes de un pueblo francés. Recién llegado de América, Grégoire de Fronsac recibe el encargo del rey Luis XV de encontrar a la fiera. Grégorie y su misterioso hermano de sangre, un indio llamado Mani, intentan descubrir qué hay detrás de estos sangrientos sucesos.




Trailer.jpg






Capturas.jpg


1.jpg


2.jpg


3.jpg


4.jpg


5.jpg


6.jpg


La pelicula NO tiene ninguna marca... solo colocamos el nombre de esta web en las capturas




MediaInfo.jpg


Código:
General
Format                                   : Matroska
Format version                           : Version 2
File size                                : 4.44 GiB
Duration                                 : 2h 30mn
Overall bit rate mode                    : Variable
Overall bit rate                         : 4 229 Kbps
Movie name                               : www.club-hd.com
Encoded date                             : UTC 2014-01-19 15:23:05
Writing application                      : mkvmerge v5.7.0 ('The Whirlwind') built on Jul  8 2012 20:08:51
Writing library                          : libebml v1.2.3 + libmatroska v1.3.0

Video
ID                                       : 1
Format                                   : AVC
Format/Info                              : Advanced Video Codec
Format profile                           : [email protected]
Format settings, CABAC                   : Yes
Format settings, ReFrames                : 3 frames
Muxing mode                              : Header stripping
Codec ID                                 : V_MPEG4/ISO/AVC
Duration                                 : 2h 30mn
Bit rate mode                            : Variable
Bit rate                                 : 3 697 Kbps
Maximum bit rate                         : 24.0 Mbps
Width                                    : 1 280 pixels
Height                                   : 544 pixels
Display aspect ratio                     : 2.35:1
Frame rate mode                          : Constant
Frame rate                               : 23.976 fps
Color space                              : YUV
Chroma subsampling                       : 4:2:0
Bit depth                                : 8 bits
Scan type                                : Progressive
Bits/(Pixel*Frame)                       : 0.221
Stream size                              : 3.88 GiB (87%)
Title                                    : www.club-hd.com
Language                                 : French
Default                                  : Yes
Forced                                   : No

Audio
ID                                       : 2
Format                                   : AC-3
Format/Info                              : Audio Coding 3
Mode extension                           : CM (complete main)
Format settings, Endianness              : Big
Muxing mode                              : Header stripping
Codec ID                                 : A_AC3
Duration                                 : 2h 30mn
Bit rate mode                            : Constant
Bit rate                                 : 448 Kbps
Channel(s)                               : 6 channels
Channel positions                        : Front: L C R, Side: L R, LFE
Sampling rate                            : 48.0 KHz
Bit depth                                : 16 bits
Compression mode                         : Lossy
Stream size                              : 482 MiB (11%)
Title                                    : www.club-hd.com
Language                                 : French
Default                                  : Yes
Forced                                   : No

Text
ID                                       : 3
Format                                   : UTF-8
Codec ID                                 : S_TEXT/UTF8
Codec ID/Info                            : UTF-8 Plain Text
Title                                    : www.club-hd.com
Language                                 : Spanish
Default                                  : Yes
Forced                                   : No




Descarga.jpg



MEGA.jpg

Tenemos TODO el material de Club-HD disponible por Mega, enlaces 100% activos y online hasta la fecha

Llévate tus cuentas Mega PRO III gratis con tu membresía VIP!
Todos los posts vivos con links de Mega.
Todo el material de Club-HD desbloqueado y sin publicidad.

Obtén más información sobre nuestras Membresías VIP



UPLOADED_BANNER.png

Para ver este contenido oculto, debes dar click en el botón"Like", o cualquiera de las otras reacciones:

Me Gusta Me Gusta, Me Encanta Me Encanta, Jaja Jaja, Wow Wow, Triste Triste, Molesto Molesto
 
Última edición por un moderador:
¡¡Gracias por subir este pedazo de película!! Tb_up3:aplausos::sprloc: Recomendada. Que tremendo aportazo. ¡¡Gracias!! Desc_g_


PD: ¡¡Gracias a edgamens por pedirla!!
 
Última edición:
Volver