Led Zeppelin: Celebration Day (2012) m-1080p BDRip [AC3 5.1] (Concierto)

Maestro Revolver

Well-known member
Miembro del Staff
Administrador
Registro
9 Ago 2012
Mensajes
3.567








Con motivo del homenaje al fundador de Atlantic Records, Ahmet Ertegun, el mítico grupo de rock Led Zeppelin se subió, tras 27 años, al O2 Arena de Londres para interpretar 16 canciones que forman parte ya de la historia del rock&roll. Durante 2 horas el público pudo disfrutar de uno de los grupos más influyentes de la historia de la música tocando temas como Whole Lotta Love, Kashmir o Stairway To Heaven.
: http://www.imdb.com/title/tt2414166/


Track List:

1. Good Times Bad Times
2. Ramble On
3. Perro Negro
4. In My Time Of Dying
5. For Your Life
6. Trampled Under Foot
7. Nadie culpa, pero s Mine
8. No Quarter
9. Desde que he Been Loving You
10. Dazed And Confused
11. Stairway To Heaven
12. The Song Remains The Same
13. Misty Mountain Hop
14. Cachemira
15. Whole Lotta Love
16. Rock And Roll





























Código:
General
Format                                   : Matroska
Format version                           : Version 2
File size                                : 4.91 GiB
Duration                                 : 2h 4mn
Overall bit rate mode                    : Variable
Overall bit rate                         : 5 661 Kbps
Movie name                               : www.club-hd.com
Encoded date                             : UTC 2013-04-08 23:16:01
Writing application                      : mkvmerge v5.7.0 ('The Whirlwind') built on Jul  8 2012 20:08:51
Writing library                          : libebml v1.2.3 + libmatroska v1.3.0

Video
ID                                       : 1
Format                                   : AVC
Format/Info                              : Advanced Video Codec
Format profile                           : Main@L4.0
Format settings, CABAC                   : Yes
Format settings, ReFrames                : 4 frames
Codec ID                                 : V_MPEG4/ISO/AVC
Duration                                 : 2h 4mn
Bit rate mode                            : Variable
Bit rate                                 : 5 000 Kbps
Maximum bit rate                         : 40.0 Mbps
Width                                    : 1 920 pixels
Height                                   : 1 080 pixels
Display aspect ratio                     : 16:9
Frame rate mode                          : Constant
Frame rate                               : 25.000 fps
Color space                              : YUV
Chroma subsampling                       : 4:2:0
Bit depth                                : 8 bits
Scan type                                : Progressive
Bits/(Pixel*Frame)                       : 0.096
Stream size                              : 4.26 GiB (87%)
Title                                    : www.club-hd.com
Writing library                          : x264 core 112
Language                                 : English
Default                                  : Yes
Forced                                   : No
Color primaries                          : BT.709
Transfer characteristics                 : BT.709
Matrix coefficients                      : BT.709

Audio
ID                                       : 2
Format                                   : AC-3
Format/Info                              : Audio Coding 3
Mode extension                           : CM (complete main)
Format settings, Endianness              : Big
Codec ID                                 : A_AC3
Duration                                 : 2h 4mn
Bit rate mode                            : Constant
Bit rate                                 : 640 Kbps
Channel(s)                               : 6 channels
Channel positions                        : Front: L C R, Side: L R, LFE
Sampling rate                            : 48.0 KHz
Bit depth                                : 16 bits
Compression mode                         : Lossy
Stream size                              : 568 MiB (11%)
Title                                    : www.club-hd.com
Language                                 : English
Default                                  : Yes
Forced                                   : No

Menu
00:00:00.000                             : en:Intro
00:01:44.000                             : en:01. Good Times Bad Times
00:04:54.800                             : en:02. Ramble On
00:10:36.280                             : en:03. Black Dog
00:16:30.920                             : en:04. In My Time Of Dying
00:28:22.160                             : en:05. For Your Life
00:35:17.120                             : en:06. Trampled Under Foot
00:42:18.560                             : en:07. Nobody's Fault But Mine
00:49:16.920                             : en:08. No Quarter
00:58:40.960                             : en:09. Since I've Been Loving You
01:07:04.840                             : en:10. Dazed And Confused
01:18:58.120                             : en:11. Stairway To Heaven
01:27:47.120                             : en:12. The Song Remains The Same
01:34:24.600                             : en:13. Misty Mountain Hop
01:39:32.480                             : en:14. Kashmir
01:49:37.960                             : en:15. Whole Lotta Love
01:58:02.240                             : en:16. Rock And Roll
02:03:08.480                             : en:End Credits








Enlaces de Mega y Google Drive solo disponibles para Miembros VIP

Compra tu Membresía VIP y apoya a Club-HD!

ATENCIÓN! Tenemos TODO el material de Club-HD disponible por Mega y Google Drive, enlaces 100% activos y online hasta la fecha

Llévate tus cuentas Mega PRO III gratis con tu membresía VIP!
Todos los posts vivos con links de Mega y Google Drive.
Todo el material de Club-HD desbloqueado y sin publicidad.

Click Aquí para más información.



Para ver este contenido oculto, debes dar click en una de las siguientes reacciones : Like Like, Love Love, Haha Haha, Wow Wow, Sad Sad, Angry Angry

 
Última edición:

orcko5001

Active member
Registro
27 Ago 2012
Mensajes
288
Edad
38
jajaj justamente ayer lo vi en un canal de mi pais pero no lo vi completo creo q me lo llevo para la coleccion saludos
 

Usuarios Que Están Viendo Este Tema (Total: 1, Miembros: 0, Invitados: 1)

Quién Leyó Este Tema (Total Miembros: 2)

Arriba