LEGO Batman: The Movie - DC Superheroes Unite (2013) m-720p BDRip Dual Latino-Inglés [Subt. Esp] (Animación)

Maestro Revolver

Administrador
Registro
9 Ago 2012
Mensajes
3.157
Reacciones (ptje)
55.041


Lego-Batman.jpg




FichaTecnica.jpg


TÍTULO ORIGINAL: LEGO Batman: The Movie - DC Superheroes Unite
AÑO: 2013
DURACIÓN: 118 min.
PAÍS: USA
DIRECTOR: Jon Burton
GUIÓN: David A. Goodman (Historia: Jon Burton, David A. Goodman)
REPARTO: Animation
PRODUCTORA: DC Comics / The LEGO Group / LEGO
GÉNERO: Animación. Acción. Aventuras | Crimen. Superhéroes. Cómic. DC Comics
imdb-logo.png
: http://www.imdb.com/title/tt2465238/




Sinopsis.jpg


La fiesta de Bruce Wayne para celebrar que es el Hombre del Año en Gotham pronto se convierte en un caos cuando El Joker aparece en escena con una gran cantidad de secuaces a su lado, incluyendo a Enigma, Catwoman y Dos Caras. El Caballero Oscuro se tendrá que poner en acción para atrapar a estos invitados inesperados. Pero uno de los criminales que está en la fiesta no es tan obvio como el resto: Lex Luthor, que además lleva con él un arma secreta que puede cambiar la balanza de poder en Gotham para siempre: ¡El Deconstructor! El equipo problemático de Lex Luthor y Joker, no es algo que puedan resolver solos Batman y Robin, ¿pero para que están los Super Amigos? Superman, Wonder Woman y Green Lantern les ayudarán a proteger a los inocentes y salvar la Ciudad de Gotham.




Trailer.jpg






Capturas.jpg


1.jpg


2.jpg


3.jpg


4.jpg


5.jpg


6.jpg


La pelicula NO tiene ninguna marca... solo colocamos el nombre de esta web en las capturas




MediaInfo.jpg


Código:
General
Format                                   : Matroska
Format version                           : Version 2
File size                                : 2.07 GiB
Duration                                 : 1h 10mn
Overall bit rate                         : 4 190 Kbps
Movie name                               : www.club-hd.com
Encoded date                             : UTC 2013-05-29 16:21:51
Writing application                      : mkvmerge v5.7.0 ('The Whirlwind') built on Jul  8 2012 20:08:51
Writing library                          : libebml v1.2.3 + libmatroska v1.3.0

Video
ID                                       : 1
Format                                   : AVC
Format/Info                              : Advanced Video Codec
Format profile                           : [email protected]
Format settings, CABAC                   : Yes
Format settings, ReFrames                : 5 frames
Codec ID                                 : V_MPEG4/ISO/AVC
Duration                                 : 1h 10mn
Bit rate                                 : 2 911 Kbps
Width                                    : 1 280 pixels
Height                                   : 720 pixels
Display aspect ratio                     : 16:9
Frame rate mode                          : Constant
Frame rate                               : 23.976 fps
Color space                              : YUV
Chroma subsampling                       : 4:2:0
Bit depth                                : 8 bits
Scan type                                : Progressive
Bits/(Pixel*Frame)                       : 0.132
Stream size                              : 1.40 GiB (67%)
Title                                    : www.club-hd.com
Writing library                          : x264 core 133 r2334 a3ac64b
Language                                 : English
Default                                  : Yes
Forced                                   : No

Audio #1
ID                                       : 2
Format                                   : AC-3
Format/Info                              : Audio Coding 3
Mode extension                           : CM (complete main)
Format settings, Endianness              : Big
Codec ID                                 : A_AC3
Duration                                 : 1h 10mn
Bit rate mode                            : Constant
Bit rate                                 : 640 Kbps
Channel(s)                               : 6 channels
Channel positions                        : Front: L C R, Side: L R, LFE
Sampling rate                            : 48.0 KHz
Bit depth                                : 16 bits
Compression mode                         : Lossy
Stream size                              : 324 MiB (15%)
Title                                    : Latino
Language                                 : Spanish
Default                                  : Yes
Forced                                   : No

Audio #2
ID                                       : 3
Format                                   : AC-3
Format/Info                              : Audio Coding 3
Mode extension                           : CM (complete main)
Format settings, Endianness              : Big
Codec ID                                 : A_AC3
Duration                                 : 1h 10mn
Bit rate mode                            : Constant
Bit rate                                 : 640 Kbps
Channel(s)                               : 6 channels
Channel positions                        : Front: L C R, Side: L R, LFE
Sampling rate                            : 48.0 KHz
Bit depth                                : 16 bits
Compression mode                         : Lossy
Stream size                              : 324 MiB (15%)
Title                                    : Inglés
Language                                 : English
Default                                  : No
Forced                                   : No

Text
ID                                       : 4
Format                                   : UTF-8
Codec ID                                 : S_TEXT/UTF8
Codec ID/Info                            : UTF-8 Plain Text
Language                                 : Spanish
Default                                  : No
Forced                                   : No




Descarga.jpg



MEGA.jpg

Tenemos TODO el material de Club-HD disponible por Mega, enlaces 100% activos y online hasta la fecha

Llévate tus cuentas Mega PRO III gratis con tu membresía VIP!
Todos los posts vivos con links de Mega.
Todo el material de Club-HD desbloqueado y sin publicidad.

Obtén más información sobre nuestras Membresías VIP


1FICHIER-BANNER.png

Tenemos TODO el material de Club-HD disponible por Mega, enlaces 100% activos y online hasta la fecha

Llévate tus cuentas Mega PRO III gratis con tu membresía VIP!
Todos los posts vivos con links de Mega.
Todo el material de Club-HD desbloqueado y sin publicidad.

Obtén más información sobre nuestras Membresías VIP


UPLOADED_BANNER.png

Para ver este contenido oculto, debes dar click en el botón"Like", o cualquiera de las otras reacciones:

Me Gusta Me Gusta, Me Encanta Me Encanta, Jaja Jaja, Wow Wow, Triste Triste, Molesto Molesto

OPENLOAD.png

Para ver este contenido oculto, debes dar click en el botón"Like", o cualquiera de las otras reacciones:

Me Gusta Me Gusta, Me Encanta Me Encanta, Jaja Jaja, Wow Wow, Triste Triste, Molesto Molesto
 
Última edición por un moderador:
Muchos Gracias por este estreno, veremos, para gustos hay colores.:aplausos::aplausos::aplausos:

Gracias Master!!:aplausos::aplausos::LXR::LXR:
 
Esta película ya la vi y la verdad la recomiendo, mucha comedia :D
 
Excelente. Nunca creí que iba a ver una cosa así. Tiene pinta de estar buenísima. Muchísimas Gracias.
 
No te das una idea la desesperacion que tenia por estooooo , gracias ,BESTIA Tb_up3Tb_up3:dplgar::dplgar:
 
Desc_g_
Muy buena pelicula, la estaba esperando mi hijo, esta muy bien, a pesar de ser una animacion para niños el guason no pierde su esencia malevola y locura fuera de cualquier tratamiento psiquiatrico.
 
Última edición:
Pense que setrataba de un juego, l0l ................................. Pnsand0... creo que la voy a bajar para los chikitos de la casa, en tanto llegan los Croods al Club, que es la que estan esperando 4stuto
Gracias Revolver! Desc_g_
 
Volver