Les Miserables (1998) m-720p Dual Latino-Inglés [Subt. Esp-Ing] (Drama)

Maestro Revolver

Well-known member
Miembro del Staff
Administrador
Registro
9 Ago 2012
Mensajes
3.569
Reacciones
59.480
Puntos
113

Reputation:









TÍTULO ORIGINAL: Les Miserables
AÑO: 1998
DURACIÓN: 134 min.
PAÍS: USA
DIRECTOR: Bille August
GUIÓN: Rafael Yglesias (Novela: Victor Hugo)
REPARTO: Liam Neeson, Geoffrey Rush, Uma Thurman, Claire Danes, Hans Matheson, Reine Brynolfsson, Peter Vaughan, Kathleen Byron
PRODUCTORA: Mandalay Entertainment
GÉNERO: Drama | Drama de época. Siglo XIX
: http://www.imdb.com/title/tt0119683/






Los Miserables es una épica historia de amor, honor y obsesión dentro de la dramática trasformación de la Francia de principios del siglo XIX. Cuenta la historia de Jean Valjean que, dura e injustamente condenado por robar una barra de pan, se ve perseguido por la justicia a lo largo de toda su vida.
























La pelicula NO tiene ninguna marca... solo colocamos el nombre de esta web en las capturas






Código:
General
Format                                   : Matroska
Format version                           : Version 2
File size                                : 3.48 GiB
Duration                                 : 2h 13mn
Overall bit rate                         : 3 723 Kbps
Movie name                               : www.club-hd.com
Encoded date                             : UTC 2012-12-26 04:21:31
Writing application                      : mkvmerge v5.7.0 ('The Whirlwind') built on Jul  8 2012 20:08:51
Writing library                          : libebml v1.2.3 + libmatroska v1.3.0

Video
ID                                       : 1
Format                                   : AVC
Format/Info                              : Advanced Video Codec
Format profile                           : High@L4.1
Format settings, CABAC                   : Yes
Format settings, ReFrames                : 9 frames
Codec ID                                 : V_MPEG4/ISO/AVC
Duration                                 : 2h 13mn
Bit rate                                 : 2 889 Kbps
Width                                    : 1 280 pixels
Height                                   : 534 pixels
Display aspect ratio                     : 2.40:1
Frame rate mode                          : Constant
Frame rate                               : 23.976 fps
Color space                              : YUV
Chroma subsampling                       : 4:2:0
Bit depth                                : 8 bits
Scan type                                : Progressive
Bits/(Pixel*Frame)                       : 0.176
Stream size                              : 2.64 GiB (76%)
Title                                    : www.club-hd.com
Writing library                          : x264 core 129 r2230 1cffe9f
Language                                 : English
Default                                  : Yes
Forced                                   : No

Audio #1
ID                                       : 2
Format                                   : AC-3
Format/Info                              : Audio Coding 3
Format profile                           : Dolby Digital
Mode extension                           : CM (complete main)
Format settings, Endianness              : Big
Codec ID                                 : A_AC3
Duration                                 : 2h 13mn
Bit rate mode                            : Constant
Bit rate                                 : 192 Kbps
Channel(s)                               : 2 channels
Channel positions                        : Front: L R
Sampling rate                            : 48.0 KHz
Bit depth                                : 16 bits
Compression mode                         : Lossy
Delay relative to video                  : 20ms
Stream size                              : 184 MiB (5%)
Title                                    : www.club-hd.com  >>  Latino
Language                                 : Spanish
Default                                  : Yes
Forced                                   : No

Audio #2
ID                                       : 3
Format                                   : AC-3
Format/Info                              : Audio Coding 3
Mode extension                           : CM (complete main)
Format settings, Endianness              : Big
Codec ID                                 : A_AC3
Duration                                 : 2h 13mn
Bit rate mode                            : Constant
Bit rate                                 : 640 Kbps
Channel(s)                               : 6 channels
Channel positions                        : Front: L C R, Side: L R, LFE
Sampling rate                            : 48.0 KHz
Bit depth                                : 16 bits
Compression mode                         : Lossy
Stream size                              : 613 MiB (17%)
Title                                    : www.club-hd.com  >>  Inglés
Language                                 : English
Default                                  : No
Forced                                   : No

Text #1
ID                                       : 4
Format                                   : UTF-8
Codec ID                                 : S_TEXT/UTF8
Codec ID/Info                            : UTF-8 Plain Text
Language                                 : Spanish
Default                                  : No
Forced                                   : No

Text #2
ID                                       : 5
Format                                   : UTF-8
Codec ID                                 : S_TEXT/UTF8
Codec ID/Info                            : UTF-8 Plain Text
Language                                 : English
Default                                  : No
Forced                                   : No

Menu
00:00:00.000                             : en:Chapter 1
00:06:20.922                             : en:Chapter 2
00:16:18.519                             : en:Chapter 3
00:26:56.865                             : en:Chapter 4
00:35:40.513                             : en:Chapter 5
00:47:21.047                             : en:Chapter 6
00:55:15.062                             : en:Chapter 7
01:01:47.120                             : en:Chapter 8
01:13:37.955                             : en:Chapter 9
01:16:37.551                             : en:Chapter 10
01:24:04.790                             : en:Chapter 11
01:36:09.639                             : en:Chapter 12
01:40:08.419                             : en:Chapter 13
01:50:08.894                             : en:Chapter 14
01:55:17.160                             : en:Chapter 15
02:04:56.072                             : en:Chapter 16











Enlaces de Mega y Fireload solo disponibles para Miembros VIP

Compra tu Membresía VIP y apoya a Club-HD!

ATENCIÓN! Tenemos TODO el material de Club-HD disponible por Mega y Fireload, enlaces 100% activos y online hasta la fecha

Llévate tus cuentas Mega PRO II gratis con tu membresía VIP!
Todos los posts vivos con links de Mega y Fireload.
Todo el material de Club-HD desbloqueado y sin publicidad.

Click Aquí para más información.



Enlaces de Mega y Fireload solo disponibles para Miembros VIP

Compra tu Membresía VIP y apoya a Club-HD!

ATENCIÓN! Tenemos TODO el material de Club-HD disponible por Mega y Fireload, enlaces 100% activos y online hasta la fecha

Llévate tus cuentas Mega PRO II gratis con tu membresía VIP!
Todos los posts vivos con links de Mega y Fireload.
Todo el material de Club-HD desbloqueado y sin publicidad.

Click Aquí para más información.




Enlaces de Mega y Fireload solo disponibles para Miembros VIP

Compra tu Membresía VIP y apoya a Club-HD!

ATENCIÓN! Tenemos TODO el material de Club-HD disponible por Mega y Fireload, enlaces 100% activos y online hasta la fecha

Llévate tus cuentas Mega PRO II gratis con tu membresía VIP!
Todos los posts vivos con links de Mega y Fireload.
Todo el material de Club-HD desbloqueado y sin publicidad.

Click Aquí para más información.



Para ver este contenido oculto, debes dar click en una de las siguientes reacciones : Like Like, Love Love, Haha Haha, Wow Wow, Sad Sad, Angry Angry



Para ver este contenido oculto, debes dar click en una de las siguientes reacciones : Like Like, Love Love, Haha Haha, Wow Wow, Sad Sad, Angry Angry
 
Última edición:

metalfer77

Well-known member
Registro
27 Ago 2012
Mensajes
1.243
Reacciones
287
Puntos
83
Edad
44
Ubicación
Puerto Deseado

Reputation:

No tiene tantos años pero se puede decir que es un clásico. GRACIAS y Desc_g_
 

mx777

Well-known member
Registro
19 Sep 2012
Mensajes
1.343
Reacciones
41
Puntos
48
Edad
34

Reputation:

eXCELENTE APORTE MUCHAS GRACIA COMO SIEMPRE.
 

Usuarios Que Están Viendo Este Tema (Total: 1, Miembros: 0, Invitados: 1)

Arriba