Les Misérables (2012) 1080p BDRip Audio Inglés [Subt. Esp] (Musical. Drama)

Maestro Revolver

Well-known member
Miembro del Staff
Administrador
Registro
9 Ago 2012
Mensajes
3.567








TÍTULO ORIGINAL: Les Misérables
AÑO: 2012
DURACIÓN: 152 min.
PAÍS: Reino Unido
DIRECTOR: Tom Hooper
GUIÓN: William Nicholson (Novela: Victor Hugo)
REPARTO: Hugh Jackman, Russell Crowe, Anne Hathaway, Amanda Seyfried, Eddie Redmayne, Samantha Barks, Helena Bonham Carter, Sacha Baron Cohen, Aaron Tveit, Isabelle Allen, Daniel Huttlestone, Colm Wilkinson, Natalya Wallace, Michael Jibson, Bertie Carvel, Tim Downie, Marc Pickering, Patrick Godfrey, Killian Donnelly, Fra Fee, Gabriel Vick, George Blagden, Alistair Brammer, Charlotte Hope
PRODUCTORA: Coproducción Reino Unido-Estados Unidos; Universal Pictures / Working Title
GÉNERO: Musical. Drama | Drama de época. Pobreza. Siglo XIX
: http://www.imdb.com/title/tt1707386/

PREMIOS: 2012: 3 Oscar: mejor actriz de reparto (Hathaway), maquillaje y sonido. 8 nom.
2012: Globos de Oro: Mejor película musical, actor (Jackman), actriz sec. (Hathaway)
2012: 4 Premios BAFTA, incluyendo actriz secundaria (Hathaway). 9 nominaciones
2012: Critics Choice Awards: Mejor actriz secundaria (Hathaway). 11 nominaciones
2012: Satellite Awards: 3 premios, incluy. actriz de reparto (Hathaway). 10 nom.
2012: National Board of Review (NBR): 10 mejores films y Mejor reparto
2012: Asociación de Críticos de Los Angeles: 2ª posición en mejor actriz sec. (Hathaway)
2012: American Film Institute: Top 10 - Mejores películas del año
2012: Directors Guild of America (DGA): Nominada a Mejor director






El expresidiario Jean Valjean (Hugh Jackman) es perseguido durante décadas por el despiadado policía Javert (Russell Crowe). Cuando Valjean decide hacerse cargo de Cosette, la pequeña hija de Fantine (Anne Hathaway), sus vidas cambiarán para siempre. Adaptación cinematográfica del famoso musical 'Les miserables', basado a su vez en la novela homónima de Victor Hugo.
























La pelicula NO tiene ninguna marca... solo colocamos el nombre de esta web en las capturas






Código:
General
Format                                   : Matroska
Format version                           : Version 2
File size                                : 11.6 GiB
Duration                                 : 2h 37mn
Overall bit rate                         : 10.6 Mbps
Movie name                               : www.club.hd.com
Encoded date                             : UTC 2013-03-08 15:34:30
Writing application                      : mkvmerge v5.7.0 ('The Whirlwind') built on Jul  8 2012 20:08:51
Writing library                          : libebml v1.2.3 + libmatroska v1.3.0

Video
ID                                       : 1
Format                                   : AVC
Format/Info                              : Advanced Video Codec
Format profile                           : High@L4.1
Format settings, CABAC                   : Yes
Format settings, ReFrames                : 4 frames
Codec ID                                 : V_MPEG4/ISO/AVC
Duration                                 : 2h 37mn
Bit rate                                 : 8 403 Kbps
Width                                    : 1 920 pixels
Height                                   : 1 040 pixels
Display aspect ratio                     : 1.85:1
Frame rate mode                          : Constant
Frame rate                               : 23.976 fps
Color space                              : YUV
Chroma subsampling                       : 4:2:0
Bit depth                                : 8 bits
Scan type                                : Progressive
Bits/(Pixel*Frame)                       : 0.176
Stream size                              : 9.04 GiB (78%)
Title                                    : www.club.hd.com
Writing library                          : x264 core 130 r2273 b3065e6
Language                                 : English
Default                                  : Yes
Forced                                   : No

Audio #1
ID                                       : 2
Format                                   : AC-3
Format/Info                              : Audio Coding 3
Mode extension                           : CM (complete main)
Format settings, Endianness              : Big
Codec ID                                 : A_AC3
Duration                                 : 2h 37mn
Bit rate mode                            : Constant
Bit rate                                 : 640 Kbps
Channel(s)                               : 6 channels
Channel positions                        : Front: L C R, Side: L R, LFE
Sampling rate                            : 48.0 KHz
Bit depth                                : 16 bits
Compression mode                         : Lossy
Stream size                              : 723 MiB (6%)
Title                                    : www.club.hd.com  >>  Inglés AC3 5.1
Language                                 : English
Default                                  : Yes
Forced                                   : No

Audio #2
ID                                       : 3
Format                                   : DTS
Format/Info                              : Digital Theater Systems
Mode                                     : 16
Format settings, Endianness              : Big
Codec ID                                 : A_DTS
Duration                                 : 2h 37mn
Bit rate mode                            : Constant
Bit rate                                 : 1 509 Kbps
Channel(s)                               : 6 channels
Channel positions                        : Front: L C R, Side: L R, LFE
Sampling rate                            : 48.0 KHz
Bit depth                                : 24 bits
Compression mode                         : Lossy
Stream size                              : 1.66 GiB (14%)
Title                                    : www.club.hd.com  >>  Inglés DTS 5.1
Language                                 : English
Default                                  : No
Forced                                   : No

Text
ID                                       : 4
Format                                   : UTF-8
Codec ID                                 : S_TEXT/UTF8
Codec ID/Info                            : UTF-8 Plain Text
Language                                 : Spanish
Default                                  : Yes
Forced                                   : No

Menu
00:00:00.000                             : en:00:00:00.000
00:07:22.817                             : en:00:07:22.817
00:14:31.996                             : en:00:14:31.996
00:22:22.967                             : en:00:22:22.967
00:31:52.619                             : en:00:31:52.619
00:40:13.661                             : en:00:40:13.661
00:45:14.295                             : en:00:45:14.295
00:52:43.494                             : en:00:52:43.494
01:00:40.846                             : en:01:00:40.846
01:06:41.122                             : en:01:06:41.122
01:15:51.088                             : en:01:15:51.088
01:20:21.650                             : en:01:20:21.650
01:27:04.344                             : en:01:27:04.344
01:35:34.729                             : en:01:35:34.729
01:42:10.291                             : en:01:42:10.291
01:52:20.859                             : en:01:52:20.859
02:03:01.082                             : en:02:03:01.082
02:10:09.343                             : en:02:10:09.343
02:21:18.178                             : en:02:21:18.178
02:29:41.347                             : en:02:29:41.347










Enlaces de Mega y Google Drive solo disponibles para Miembros VIP

Compra tu Membresía VIP y apoya a Club-HD!

ATENCIÓN! Tenemos TODO el material de Club-HD disponible por Mega y Google Drive, enlaces 100% activos y online hasta la fecha

Llévate tus cuentas Mega PRO III gratis con tu membresía VIP!
Todos los posts vivos con links de Mega y Google Drive.
Todo el material de Club-HD desbloqueado y sin publicidad.

Click Aquí para más información.




Enlaces de Mega y Google Drive solo disponibles para Miembros VIP

Compra tu Membresía VIP y apoya a Club-HD!

ATENCIÓN! Tenemos TODO el material de Club-HD disponible por Mega y Google Drive, enlaces 100% activos y online hasta la fecha

Llévate tus cuentas Mega PRO III gratis con tu membresía VIP!
Todos los posts vivos con links de Mega y Google Drive.
Todo el material de Club-HD desbloqueado y sin publicidad.

Click Aquí para más información.



Para ver este contenido oculto, debes dar click en una de las siguientes reacciones : Like Like, Love Love, Haha Haha, Wow Wow, Sad Sad, Angry Angry

 
Última edición por un moderador:

Leo-Peru

Well-known member
Registro
27 Ago 2012
Mensajes
1.487
Ubicación
Lima
:eek: Gracias por esta buena pelicua con varias nominaciones y ganadoras de los Oscar. :aplausos: Revolver tu tambien te mereces algunos Tb_up3 lo descargo luego que ya empeze con otra jejeje
 

arkkangeldark

Well-known member
Registro
27 Ago 2012
Mensajes
3.500
Edad
35
Ubicación
Torreon Coahuila
que es lo que ven mis ojos, excelente revolver todavia esta en el cine de la ciudad pero es mejor verla en la comodidad de la casa gracias a ti
 

Omar Herrera

Well-known member
Miembro del Staff
Súper Moderador
Miembro VIP
Registro
27 Ago 2012
Mensajes
1.236
Edad
33
Ubicación
Managua
Excelentisimo Aporte mi Estimado Revolver! Me la llevo!! :aplausos:
Desc_g_
Gracias Amigo, eres el mejor! Pl4yb0y
 

Usuarios Que Están Viendo Este Tema (Total: 1, Miembros: 0, Invitados: 1)

Quién Leyó Este Tema (Total Miembros: 2)

Arriba