Life of Pi (2012) 1080p BDRip Dual Latino Inglés [Subt. Esp-Ing] (Aventura. Drama)

Maestro Revolver

Well-known member
Miembro del Staff
Administrador
Registro
9 Ago 2012
Mensajes
3.569
Reacciones
59.350
Puntos
113

Reputation:









TÍTULO ORIGINAL: Life of Pi
AÑO: 2012
DURACIÓN: 125 min.
PAÍS: USA
DIRECTOR: Ang Lee
GUIÓN: David Magee (Novela: Yann Martel)
REPARTO: Suraj Sharma, Irrfan Khan, Rafe Spall, Tabu, Adril Hussain, Shravanthi Sainath, Ayush Tandon, Vibish Sivakumar, Gérard Depardieu
PRODUCTORA: Fox 2000 Pictures / Haishang Films
GÉNERO: Aventuras. Drama | Aventuras marinas. Supervivencia. 3-D. Animales
: http://www.imdb.com/title/tt0454876/

PREMIOS: 2012: Oscar: 11 nominaciones, incluyendo Mejor película y director
2012: Globos de Oro: Mejor banda sonora. 3 nomin., incluyendo Mejor película drama
2012: 2 Premios BAFTA: mejor fotografía y efectos visuales. 9 nominaciones
2012: Critics Choice Awards: Mejor fotografía y efectos visuales. 9 nominaciones
2012: Satellite Awards: Mejor guión adaptado y fotografía. 5 nominaciones
2012: American Film Institute: Top 10 - Mejores películas del año
2012: Premios Annie: Mejor animación de personajes en una película no animada. 2 nomin.
2012: Directors Guild of America (DGA): Nominada a Mejor director






Tras un naufragio en medio del océano Pacífico, el joven hindú Pi, hijo de un guarda de zoo que viajaba de la India a Canadá, se encuentra en un bote salvavidas con un único superviviente, un tigre de bengala con quien labrará una emocionante, increíble e inesperada relación.




























La pelicula NO tiene ninguna marca... solo colocamos el nombre de esta web en las capturas






Código:
General
Format                                   : Matroska
Format version                           : Version 2
File size                                : 9.71 GiB
Duration                                 : 2h 6mn
Overall bit rate                         : 10.9 Mbps
Movie name                               : www.club-hd.com
Encoded date                             : UTC 2013-02-28 21:10:23
Writing application                      : mkvmerge v5.7.0 ('The Whirlwind') built on Jul  8 2012 20:08:51
Writing library                          : libebml v1.2.3 + libmatroska v1.3.0

Video
ID                                       : 1
Format                                   : AVC
Format/Info                              : Advanced Video Codec
Format profile                           : High@L4.1
Format settings, CABAC                   : Yes
Format settings, ReFrames                : 4 frames
Codec ID                                 : V_MPEG4/ISO/AVC
Duration                                 : 2h 6mn
Bit rate                                 : 8 344 Kbps
Width                                    : 1 920 pixels
Height                                   : 1 040 pixels
Display aspect ratio                     : 1.85:1
Frame rate mode                          : Constant
Frame rate                               : 23.976 fps
Color space                              : YUV
Chroma subsampling                       : 4:2:0
Bit depth                                : 8 bits
Scan type                                : Progressive
Bits/(Pixel*Frame)                       : 0.174
Stream size                              : 7.21 GiB (74%)
Title                                    : www.club-hd.com
Writing library                          : x264 core 129 r2245 bc13772
Language                                 : English
Default                                  : Yes
Forced                                   : No

Audio #1
ID                                       : 2
Format                                   : AC-3
Format/Info                              : Audio Coding 3
Mode extension                           : CM (complete main)
Format settings, Endianness              : Big
Codec ID                                 : A_AC3
Duration                                 : 2h 6mn
Bit rate mode                            : Constant
Bit rate                                 : 448 Kbps
Channel(s)                               : 6 channels
Channel positions                        : Front: L C R, Side: L R, LFE
Sampling rate                            : 48.0 KHz
Bit depth                                : 16 bits
Compression mode                         : Lossy
Stream size                              : 407 MiB (4%)
Title                                    : www.club-hd.com  >>  Latino AC3 5.1
Language                                 : Spanish
Default                                  : Yes
Forced                                   : No

Audio #2
ID                                       : 3
Format                                   : AC-3
Format/Info                              : Audio Coding 3
Mode extension                           : CM (complete main)
Format settings, Endianness              : Big
Codec ID                                 : A_AC3
Duration                                 : 2h 6mn
Bit rate mode                            : Constant
Bit rate                                 : 640 Kbps
Channel(s)                               : 6 channels
Channel positions                        : Front: L C R, Side: L R, LFE
Sampling rate                            : 48.0 KHz
Bit depth                                : 16 bits
Compression mode                         : Lossy
Stream size                              : 581 MiB (6%)
Title                                    : www.club-hd.com  >>  Inglés AC3 5.1
Language                                 : English
Default                                  : No
Forced                                   : No

Audio #3
ID                                       : 4
Format                                   : DTS
Format/Info                              : Digital Theater Systems
Format profile                           : ES
Mode                                     : 16
Format settings, Endianness              : Big
Codec ID                                 : A_DTS
Duration                                 : 2h 6mn
Bit rate mode                            : Constant
Bit rate                                 : 1 509 Kbps
Channel(s)                               : 6 channels
Channel positions                        : Front: L C R, Side: L R, LFE
Sampling rate                            : 48.0 KHz
Bit depth                                : 24 bits
Compression mode                         : Lossy
Stream size                              : 1.34 GiB (14%)
Title                                    : www.club-hd.com  >>  Inglés DTS 5.1
Language                                 : English
Default                                  : No
Forced                                   : No

Text #1
ID                                       : 5
Format                                   : UTF-8
Codec ID                                 : S_TEXT/UTF8
Codec ID/Info                            : UTF-8 Plain Text
Language                                 : Spanish
Default                                  : No
Forced                                   : No

Text #2
ID                                       : 6
Format                                   : UTF-8
Codec ID                                 : S_TEXT/UTF8
Codec ID/Info                            : UTF-8 Plain Text
Language                                 : English
Default                                  : No
Forced                                   : No

Menu
00:00:00.000                             : en:00:00:00.000
00:03:58.822                             : en:00:03:58.822
00:11:13.172                             : en:00:11:13.172
00:15:24.924                             : en:00:15:24.924
00:21:29.622                             : en:00:21:29.622
00:25:44.543                             : en:00:25:44.543
00:29:46.827                             : en:00:29:46.827
00:31:31.014                             : en:00:31:31.014
00:35:34.299                             : en:00:35:34.299
00:45:24.347                             : en:00:45:24.347
00:50:21.894                             : en:00:50:21.894
00:54:13.333                             : en:00:54:13.333
00:57:18.352                             : en:00:57:18.352
01:00:07.395                             : en:01:00:07.395
01:04:12.057                             : en:01:04:12.057
01:09:32.085                             : en:01:09:32.085
01:11:48.054                             : en:01:11:48.054
01:13:34.285                             : en:01:13:34.285
01:16:47.561                             : en:01:16:47.561
01:21:31.178                             : en:01:21:31.178
01:23:10.027                             : en:01:23:10.027
01:26:30.852                             : en:01:26:30.852
01:31:21.434                             : en:01:31:21.434
01:34:13.857                             : en:01:34:13.857
01:43:42.675                             : en:01:43:42.675
01:47:38.661                             : en:01:47:38.661
01:55:20.080                             : en:01:55:20.080
01:59:16.274                             : en:01:59:16.274










Enlaces de Mega y Fireload solo disponibles para Miembros VIP

Compra tu Membresía VIP y apoya a Club-HD!

ATENCIÓN! Tenemos TODO el material de Club-HD disponible por Mega y Fireload, enlaces 100% activos y online hasta la fecha

Llévate tus cuentas Mega PRO II gratis con tu membresía VIP!
Todos los posts vivos con links de Mega y Fireload.
Todo el material de Club-HD desbloqueado y sin publicidad.

Click Aquí para más información.




Enlaces de Mega y Fireload solo disponibles para Miembros VIP

Compra tu Membresía VIP y apoya a Club-HD!

ATENCIÓN! Tenemos TODO el material de Club-HD disponible por Mega y Fireload, enlaces 100% activos y online hasta la fecha

Llévate tus cuentas Mega PRO II gratis con tu membresía VIP!
Todos los posts vivos con links de Mega y Fireload.
Todo el material de Club-HD desbloqueado y sin publicidad.

Click Aquí para más información.




Enlaces de Mega y Fireload solo disponibles para Miembros VIP

Compra tu Membresía VIP y apoya a Club-HD!

ATENCIÓN! Tenemos TODO el material de Club-HD disponible por Mega y Fireload, enlaces 100% activos y online hasta la fecha

Llévate tus cuentas Mega PRO II gratis con tu membresía VIP!
Todos los posts vivos con links de Mega y Fireload.
Todo el material de Club-HD desbloqueado y sin publicidad.

Click Aquí para más información.



Para ver este contenido oculto, debes dar click en una de las siguientes reacciones : Like Like, Love Love, Haha Haha, Wow Wow, Sad Sad, Angry Angry



Para ver este contenido oculto, debes dar click en una de las siguientes reacciones : Like Like, Love Love, Haha Haha, Wow Wow, Sad Sad, Angry Angry

 
Última edición:

zacygal

Well-known member
Registro
3 Sep 2012
Mensajes
1.515
Reacciones
1.536
Puntos
113
Edad
49

Reputation:

9 GB pero vale la pena ...gracias
 

DoomsDay Elite

Well-known member
Registro
5 Sep 2012
Mensajes
1.225
Reacciones
1.101
Puntos
113

Reputation:

mi hermano esta versión la descargo ya mismo te agradezco de corazón por sus esfuerzos y paciencia con estas subidas y al mantener esta pagina activa para todos nosotros y que aun hay club HD para rato y mas
 

arkkangeldark

Well-known member
Registro
27 Ago 2012
Mensajes
3.445
Reacciones
576
Puntos
113
Edad
34
Ubicación
Torreon Coahuila

Reputation:

esto era lo que esperaba revolver la gran calidad y en dual, no la he visto y por lo que vi en los oscares realmente vale la pena, gracias maestro
 

ismar360

Well-known member
Registro
28 Ago 2012
Mensajes
2.601
Reacciones
36
Puntos
48
Edad
43

Reputation:

Gracias amigo una de las mas esperadas a descargar se a dicho
 

Ezze

Well-known member
Miembro del Staff
Súper Moderador
Registro
28 Ago 2012
Mensajes
1.663
Reacciones
1.790
Puntos
113
Ubicación
En la Torre de Observación

Reputation:

bye Revo!! Increible... :dplgar: Espero la versión 720 dual, si no la posteas me quedo con esta. Como siempre lo mejor!!! :D:D:D:D Saludos guit4r_3
 

Usuarios Que Están Viendo Este Tema (Total: 1, Miembros: 0, Invitados: 1)

Arriba