Lilo & Stitch 2: Stitch Has a Glitch (2005) 720p BDRip Dual Latino-Inglés [Subt. Esp] (Animación)

Maestro Revolver

Administrador
Registro
9 Ago 2012
Mensajes
3.157
Reacciones (ptje)
54.925


Lilo-and-Stitch-2.jpg





FichaTecnica.jpg


TÍTULO ORIGINAL: Lilo & Stitch 2: Stitch Has a Glitch
AÑO: 2005
DURACIÓN: 65 min.
PAÍS: USA
DIRECTOR: Michael LaBash, Anthony Leondis
GUIÓN: Anthony Leondis
REPARTO: Animation
PRODUCTORA: Walt Disney Pictures
GÉNERO: Animación. Comedia. Ciencia ficción. Infantil | Extraterrestres. Secuela
imdb-logo.png
: http://www.imdb.com/title/tt0457993/




Sinopsis.jpg


Lilo quiere seguir los pasos de su madre y presentarse a un concurso de baile hawaiano. Por su parte, Stitch se porta cada vez mejor haciendo que su “nivel de bondad” sea cada vez más alto. La vida en Hawai parece ir a las mil maravillas… hasta que Stitch sufre un “fallo técnico” y todo empieza a desbaratarse. Lilo, Nani, David y Jumba van a necesitar todo el “Ohana” del mundo para salvar a su pequeño amigo.




Trailer.jpg






Capturas.jpg


1.jpg


2.jpg


3.jpg


4.jpg


5.jpg


6.jpg


La pelicula NO tiene ninguna marca... solo colocamos el nombre de esta web en las capturas




MediaInfo.jpg


Código:
General
Format                                   : Matroska
Format version                           : Version 2
File size                                : 1.73 GiB
Duration                                 : 1h 8mn
Overall bit rate                         : 3 634 Kbps
Movie name                               : www.club-hd.com
Encoded date                             : UTC 2014-03-05 01:17:11
Writing application                      : mkvmerge v5.7.0 ('The Whirlwind') built on Jul  8 2012 20:08:51
Writing library                          : libebml v1.2.3 + libmatroska v1.3.0

Video
ID                                       : 1
Format                                   : AVC
Format/Info                              : Advanced Video Codec
Format profile                           : [email protected]
Format settings, CABAC                   : Yes
Format settings, ReFrames                : 9 frames
Muxing mode                              : Header stripping
Codec ID                                 : V_MPEG4/ISO/AVC
Duration                                 : 1h 8mn
Bit rate                                 : 2 730 Kbps
Width                                    : 1 280 pixels
Height                                   : 720 pixels
Display aspect ratio                     : 16:9
Frame rate mode                          : Constant
Frame rate                               : 23.976 fps
Color space                              : YUV
Chroma subsampling                       : 4:2:0
Bit depth                                : 8 bits
Scan type                                : Progressive
Bits/(Pixel*Frame)                       : 0.124
Stream size                              : 1.30 GiB (75%)
Title                                    : www.club-hd.com
Language                                 : English
Default                                  : Yes
Forced                                   : No

Audio #1
ID                                       : 2
Format                                   : AC-3
Format/Info                              : Audio Coding 3
Mode extension                           : CM (complete main)
Format settings, Endianness              : Big
Muxing mode                              : Header stripping
Codec ID                                 : A_AC3
Duration                                 : 1h 8mn
Bit rate mode                            : Constant
Bit rate                                 : 384 Kbps
Channel(s)                               : 6 channels
Channel positions                        : Front: L C R, Side: L R, LFE
Sampling rate                            : 48.0 KHz
Bit depth                                : 16 bits
Compression mode                         : Lossy
Stream size                              : 187 MiB (11%)
Title                                    : www.club-hd.com  -->>  Latino
Language                                 : Spanish
Default                                  : Yes
Forced                                   : No

Audio #2
ID                                       : 3
Format                                   : AC-3
Format/Info                              : Audio Coding 3
Mode extension                           : CM (complete main)
Format settings, Endianness              : Big
Muxing mode                              : Header stripping
Codec ID                                 : A_AC3
Duration                                 : 1h 8mn
Bit rate mode                            : Constant
Bit rate                                 : 448 Kbps
Channel(s)                               : 6 channels
Channel positions                        : Front: L C R, Side: L R, LFE
Sampling rate                            : 48.0 KHz
Bit depth                                : 16 bits
Compression mode                         : Lossy
Stream size                              : 219 MiB (12%)
Title                                    : www.club-hd.com  >>  Inglés
Language                                 : English
Default                                  : No
Forced                                   : No

Text
ID                                       : 4
Format                                   : UTF-8
Codec ID                                 : S_TEXT/UTF8
Codec ID/Info                            : UTF-8 Plain Text
Language                                 : Spanish
Default                                  : No
Forced                                   : No




Descarga.jpg



MEGA.jpg

Tenemos TODO el material de Club-HD disponible por Mega, enlaces 100% activos y online hasta la fecha

Llévate tus cuentas Mega PRO III gratis con tu membresía VIP!
Todos los posts vivos con links de Mega.
Todo el material de Club-HD desbloqueado y sin publicidad.

Obtén más información sobre nuestras Membresías VIP



UPLOADED_BANNER.png

Para ver este contenido oculto, debes dar click en el botón"Like", o cualquiera de las otras reacciones:

Me Gusta Me Gusta, Me Encanta Me Encanta, Jaja Jaja, Wow Wow, Triste Triste, Molesto Molesto
 
Última edición por un moderador:
graciaas por la pelicula una muy buena paraa ver con la familia:aplausos::aplausos::aplausos::aplausos::aplausos::aplausos::aplausos::aplausos::aplausos:
Tb_up3Tb_up3Tb_up3Tb_up3Tb_up3Tb_up3Tb_up3Tb_up3Tb_up3
 
Volver