Linkin Park - Road to Revolution, Live at Milton Keynes (2008) 1080p BDRip [AC3 5.1 | DTS] (Concierto)

Maestro Revolver

Administrador
Registro
9 Ago 2012
Mensajes
3.157
Reacciones (ptje)
55.042

Linkin-Park-Road.jpg





SINOPSIS.png


Disco en directo de la famosisima banda Linkin Park, en este concierto tocan canciones de sus 4 discos (Meteora, Hybrid Theory, Collision Course, Minutes to Midnight)
Road to Revolution: Live at Milton Keynes es el quinto CD/DVD lanzado por la banda californiana Linkin Park, que consta de un concierto grabado en el recinto National Bowl, en la ciudad de Milton Keynes, Reino Unido, el 29 de junio de 2008.
imdb-logo.png
: http://www.imdb.com/title/tt1305710/


Track List:

1. One Step Closer
2. From The Inside
3. No More Sorrow
4. Wake
5. Given Up
6. Lying From You
7. Hands Held High
8. Leave Out All the Rest
9. Numb
10. The Little Things Give You Away
11. Breaking the Habit
12. Shadow of the Day
13. Crawling
14. In the End
15. Pushing Me Away
16. What I've Done
17. Numb/Encore (featuring Jay-Z)
18. Jigga What/Faint (featuring Jay-Z)
19. Bleed It Out
Bonus Track
20. Somewhere I Belong [Bonus Track]
21. Papercut [Bonus Track]
22. Points of Authority [Bonus Track]




TRAILER.png






CAPTURAS.png


0.jpg


1.jpg


2.jpg


3.jpg


4.jpg


5.jpg


6.jpg


7.jpg


8.jpg





DATOS_TECNICOS.png


Código:
General
Format                                   : Matroska
Format version                           : Version 2
File size                                : 9.14 GiB
Duration                                 : 1h 35mn
Overall bit rate                         : 13.6 Mbps
Movie name                               : www.club-hd.com
Encoded date                             : UTC 2013-01-17 02:00:13
Writing application                      : mkvmerge v5.7.0 ('The Whirlwind') built on Jul  8 2012 20:08:51
Writing library                          : libebml v1.2.3 + libmatroska v1.3.0

Video
ID                                       : 1
Format                                   : AVC
Format/Info                              : Advanced Video Codec
Format profile                           : [email protected]
Format settings, CABAC                   : Yes
Format settings, ReFrames                : 4 frames
Codec ID                                 : V_MPEG4/ISO/AVC
Duration                                 : 1h 35mn
Bit rate                                 : 11.5 Mbps
Width                                    : 1 920 pixels
Height                                   : 1 080 pixels
Display aspect ratio                     : 16:9
Frame rate mode                          : Constant
Frame rate                               : 23.976 fps
Color space                              : YUV
Chroma subsampling                       : 4:2:0
Bit depth                                : 8 bits
Scan type                                : Progressive
Bits/(Pixel*Frame)                       : 0.231
Stream size                              : 7.52 GiB (82%)
Title                                    : www.club-hd.com
Writing library                          : x264 core 67 r1153M 7b6ce6a
Language                                 : English
Default                                  : Yes
Forced                                   : No

Audio #1
ID                                       : 2
Format                                   : AC-3
Format/Info                              : Audio Coding 3
Mode extension                           : CM (complete main)
Format settings, Endianness              : Big
Codec ID                                 : A_AC3
Duration                                 : 1h 35mn
Bit rate mode                            : Constant
Bit rate                                 : 640 Kbps
Channel(s)                               : 6 channels
Channel positions                        : Front: L C R, Side: L R, LFE
Sampling rate                            : 48.0 KHz
Bit depth                                : 16 bits
Compression mode                         : Lossy
Stream size                              : 439 MiB (5%)
Title                                    : www.club-hd.com  >>  Ac3 5.1
Language                                 : English
Default                                  : Yes
Forced                                   : No

Audio #2
ID                                       : 3
Format                                   : DTS
Format/Info                              : Digital Theater Systems
Mode                                     : 16
Format settings, Endianness              : Big
Codec ID                                 : A_DTS
Duration                                 : 1h 35mn
Bit rate mode                            : Constant
Bit rate                                 : 1 509 Kbps
Channel(s)                               : 6 channels
Channel positions                        : Front: L C R, Side: L R, LFE
Sampling rate                            : 48.0 KHz
Bit depth                                : 24 bits
Compression mode                         : Lossy
Delay relative to video                  : 6ms
Stream size                              : 1.01 GiB (11%)
Title                                    : www.club-hd.com  >>  DTS 5.1
Language                                 : English
Default                                  : No
Forced                                   : No




Descarga.png




google-drive-vip.png


Tenemos TODO el material de Club-HD disponible por Mega, enlaces 100% activos y online hasta la fecha

Llévate tus cuentas Mega PRO III gratis con tu membresía VIP!
Todos los posts vivos con links de Mega.
Todo el material de Club-HD desbloqueado y sin publicidad.

Obtén más información sobre nuestras Membresías VIP



MEGA.jpg

Tenemos TODO el material de Club-HD disponible por Mega, enlaces 100% activos y online hasta la fecha

Llévate tus cuentas Mega PRO III gratis con tu membresía VIP!
Todos los posts vivos con links de Mega.
Todo el material de Club-HD desbloqueado y sin publicidad.

Obtén más información sobre nuestras Membresías VIP



UPLOADED_BANNER.png

Para ver este contenido oculto, debes dar click en el botón"Like", o cualquiera de las otras reacciones:

Me Gusta Me Gusta, Me Encanta Me Encanta, Jaja Jaja, Wow Wow, Triste Triste, Molesto Molesto
 
Última edición por un moderador:
Re: Linkin Park - Road to Revolution, Live at Milton Keynes (2008) 1080p BDRip [AC3 5.1 | DTS] (Concierto)

gracias :)
 
Re: Linkin Park - Road to Revolution, Live at Milton Keynes (2008) 1080p BDRip [AC3 5.1 | DTS] (Concierto)

thanks revolver estaba buscando este concierto de mi grupo favorito Tb_up3
 
Re: Linkin Park - Road to Revolution, Live at Milton Keynes (2008) 1080p BDRip [AC3 5.1 | DTS] (Concierto)

:aplausos::aplausos::aplausos::aplausos::aplausos::LXR::LXR::LXR: gracias Revolver por este excelente concierto! este es uno de mis grupos favoritos asi que me llevo el concierto Gracias master
 
Re: Linkin Park - Road to Revolution, Live at Milton Keynes (2008) 1080p BDRip [AC3 5.1 | DTS] (Concierto)

Muchas gracias Maestro, excelente aporte.:aplausos::aplausos:

Thanks R21!:LXR::dplgar:
 
Re: Linkin Park - Road to Revolution, Live at Milton Keynes (2008) 1080p BDRip [AC3 5.1 | DTS] (Concierto)

exelente r21 gracias R0ckinR0ckinR0ckin
 
Re: Linkin Park - Road to Revolution, Live at Milton Keynes (2008) 1080p BDRip [AC3 5.1 | DTS] (Concierto)

pffff de lujo bro muy buen grupo saludos y gracias
 
Re: Linkin Park - Road to Revolution, Live at Milton Keynes (2008) 1080p BDRip [AC3 5.1 | DTS] (Concierto)

gran concierto para grandes seguidores
 
Re: Linkin Park - Road to Revolution, Live at Milton Keynes (2008) 1080p BDRip [AC3 5.1 | DTS] (Concierto)

Desc_g_
 
Re: Linkin Park - Road to Revolution, Live at Milton Keynes (2008) 1080p BDRip [AC3 5.1 | DTS] (Concierto)

Desc_g_:dplgar::dplgar:
 
Re: Linkin Park - Road to Revolution, Live at Milton Keynes (2008) 1080p BDRip [AC3 5.1 | DTS] (Concierto)

Descargando
 
Re: Linkin Park - Road to Revolution, Live at Milton Keynes (2008) 1080p BDRip [AC3 5.1 | DTS] (Concierto)

Gracias men :dplgar: Desc_g_
 
Re: Linkin Park - Road to Revolution, Live at Milton Keynes (2008) 1080p BDRip [AC3 5.1 | DTS] (Concierto)

excelente gran aporte!! gracias!! se pasaron!!
 
Re: Linkin Park - Road to Revolution, Live at Milton Keynes (2008) 1080p BDRip [AC3 5.1 | DTS] (Concierto)

Desc_g_
 
Re: Linkin Park - Road to Revolution, Live at Milton Keynes (2008) 1080p BDRip [AC3 5.1 | DTS] (Concierto)

gracias
 
Re: Linkin Park - Road to Revolution, Live at Milton Keynes (2008) 1080p BDRip [AC3 5.1 | DTS] (Concierto)

gracias!
 
Re: Linkin Park - Road to Revolution, Live at Milton Keynes (2008) 1080p BDRip [AC3 5.1 | DTS] (Concierto)

Gracias men
 
Re: Linkin Park - Road to Revolution, Live at Milton Keynes (2008) 1080p BDRip [AC3 5.1 | DTS] (Concierto)

cuantos links son ???
 
Re: Linkin Park - Road to Revolution, Live at Milton Keynes (2008) 1080p BDRip [AC3 5.1 | DTS] (Concierto)

Desc_g_
 
Re: Linkin Park - Road to Revolution, Live at Milton Keynes (2008) 1080p BDRip [AC3 5.1 | DTS] (Concierto)

Desc_g_
 
Volver