Lock Up (1989) 720p BDRip Dual Latino-Inglés [Subt. Esp] (Acción. Drama)

Maestro Revolver

Well-known member
Miembro del Staff
Administrador
Registro
9 Ago 2012
Mensajes
3.567

Rep:









TÍTULO ORIGINAL: Lock Up
AÑO: 1989
DURACIÓN: 106 min.
PAÍS: USA
DIRECTOR: John Flynn
GUIÓN: Jeb Stuart, Henry Rosenbaum, Richard Smith
REPARTO: Sylvester Stallone, Donald Sutherland, John Amos, Sonny Landham, Tom Sizemore, Larry Romano, Frank McRae, Darlanne Fluegel
PRODUCTORA: Columbia Pictures
GÉNERO: Acción. Drama | Drama carcelario
: http://www.imdb.com/title/tt0097770/






Frank Leone está a punto de cumplir su condena de reclusión por un delito menor. Sin embargo a punto de ser liberado, Warden Drumgoole se hace cargo de la prisión. Drumgoole fue reasignado a tan infernal presidio después de que su administración fuera públicamente puesta en entredicho por Leone, y ahora él se encargará de que nunca vuelva a ver la luz del día.
























La pelicula NO tiene ninguna marca... solo colocamos el nombre de esta web en las capturas






Código:
General
Format                                   : Matroska
Format version                           : Version 2
File size                                : 4.42 GiB
Duration                                 : 1h 48mn
Overall bit rate                         : 5 812 Kbps
Movie name                               : www.club-hd.com
Encoded date                             : UTC 2013-04-16 21:44:27
Writing application                      : mkvmerge v5.7.0 ('The Whirlwind') built on Jul  8 2012 20:08:51
Writing library                          : libebml v1.2.3 + libmatroska v1.3.0

Video
ID                                       : 1
Format                                   : AVC
Format/Info                              : Advanced Video Codec
Format profile                           : High@L4.1
Format settings, CABAC                   : Yes
Format settings, ReFrames                : 9 frames
Codec ID                                 : V_MPEG4/ISO/AVC
Duration                                 : 1h 48mn
Bit rate                                 : 5 109 Kbps
Width                                    : 1 280 pixels
Height                                   : 690 pixels
Display aspect ratio                     : 1.85:1
Frame rate mode                          : Constant
Frame rate                               : 24.000 fps
Color space                              : YUV
Chroma subsampling                       : 4:2:0
Bit depth                                : 8 bits
Scan type                                : Progressive
Bits/(Pixel*Frame)                       : 0.241
Stream size                              : 3.80 GiB (86%)
Title                                    : www.club-hd.com
Writing library                          : x264 core 104 r1688 0b36c6d
Language                                 : English
Default                                  : Yes
Forced                                   : No

Audio #1
ID                                       : 2
Format                                   : AC-3
Format/Info                              : Audio Coding 3
Mode extension                           : CM (complete main)
Format settings, Endianness              : Big
Codec ID                                 : A_AC3
Duration                                 : 1h 48mn
Bit rate mode                            : Constant
Bit rate                                 : 256 Kbps
Channel(s)                               : 2 channels
Channel positions                        : Front: L R
Sampling rate                            : 48.0 KHz
Bit depth                                : 16 bits
Compression mode                         : Lossy
Stream size                              : 199 MiB (4%)
Title                                    : www.club-hd.com  >>  Latino
Language                                 : Spanish
Default                                  : Yes
Forced                                   : No

Audio #2
ID                                       : 3
Format                                   : AC-3
Format/Info                              : Audio Coding 3
Mode extension                           : CM (complete main)
Format settings, Endianness              : Big
Codec ID                                 : A_AC3
Duration                                 : 1h 48mn
Bit rate mode                            : Constant
Bit rate                                 : 448 Kbps
Channel(s)                               : 6 channels
Channel positions                        : Front: L C R, Side: L R, LFE
Sampling rate                            : 48.0 KHz
Bit depth                                : 16 bits
Compression mode                         : Lossy
Stream size                              : 349 MiB (8%)
Title                                    : www.club-hd.com  >>  Inglés
Language                                 : English
Default                                  : No
Forced                                   : No

Text
ID                                       : 4
Format                                   : UTF-8
Codec ID                                 : S_TEXT/UTF8
Codec ID/Info                            : UTF-8 Plain Text
Language                                 : Spanish
Default                                  : No
Forced                                   : No

Menu
00:00:00.000                             : :00:00:00.000
00:08:24.458                             : :00:08:24.458
00:18:57.416                             : :00:18:57.416
00:26:19.500                             : :00:26:19.500
00:41:08.000                             : :00:41:08.000
00:54:46.125                             : :00:54:46.125
01:01:49.333                             : :01:01:49.333
01:08:04.166                             : :01:08:04.166
01:15:34.083                             : :01:15:34.083
01:23:22.708                             : :01:23:22.708
01:35:32.333                             : :01:35:32.333
01:44:05.583                             : :01:44:05.583








Enlaces de Mega y Google Drive solo disponibles para Miembros VIP

Compra tu Membresía VIP y apoya a Club-HD!

ATENCIÓN! Tenemos TODO el material de Club-HD disponible por Mega y Google Drive, enlaces 100% activos y online hasta la fecha

Llévate tus cuentas Mega PRO III gratis con tu membresía VIP!
Todos los posts vivos con links de Mega y Google Drive.
Todo el material de Club-HD desbloqueado y sin publicidad.

Click Aquí para más información.

Enlaces de Mega y Google Drive solo disponibles para Miembros VIP

Compra tu Membresía VIP y apoya a Club-HD!

ATENCIÓN! Tenemos TODO el material de Club-HD disponible por Mega y Google Drive, enlaces 100% activos y online hasta la fecha

Llévate tus cuentas Mega PRO III gratis con tu membresía VIP!
Todos los posts vivos con links de Mega y Google Drive.
Todo el material de Club-HD desbloqueado y sin publicidad.

Click Aquí para más información.



Para ver este contenido oculto, debes dar click en una de las siguientes reacciones : Like Like, Love Love, Haha Haha, Wow Wow, Sad Sad, Angry Angry

 
Última edición por un moderador:

Ezze

Well-known member
Miembro del Staff
Súper Moderador
Miembro VIP
Registro
28 Ago 2012
Mensajes
1.666
Ubicación
En la Torre de Observación

Rep:

Muchas gracias Revoler!!! :dplgar: Esta peli no me la pierdo xD Debe estar buena :D Gracias de nuevo por compartir Tb_up3 Saludos bye
 

zacygal

Well-known member
Registro
3 Sep 2012
Mensajes
1.515
Edad
50

Rep:

Maestro muy buena pela Ochentera, ya que estamos por esa época, por que no nos deleitas con una buena pela del Brat Pack ...
 

edward1080

Well-known member
Registro
23 Nov 2012
Mensajes
1.013
Edad
35

Rep:

Eres un genio Revolver Que buena pelicula, lo mejor solo aquí en club HD... gracias Máster por darnos siempre buenas películas, no hay duda que son los mejores :dplgar:
 

Usuarios Que Están Viendo Este Tema (Total: 1, Miembros: 0, Invitados: 1)

Quién Leyó Este Tema (Total Miembros: 2)

Arriba