Lockout (2012) UNRATED BDRip 1080p Dual Latino-Ingles [Subt. Esp-Ing] (Ciencia ficción. Thriller)

Maestro Revolver

Well-known member
Miembro del Staff
Administrador
Registro
9 Ago 2012
Mensajes
3.569
Reacciones
59.350
Puntos
113

Reputation:


Aporte Recuperado gracias a nuestro amigo jovivaver







TÍTULO ORIGINAL: Lock Out (Lockout) (Section 8) (MS One: Maximum Security)
AÑO: 2012
DURACIÓN: 1h 35mn
PAÍS: Francia
DIRECTOR: James Mather, Stephen St. Leger
GUIÓN: James Mather, Stephen St. Leger, Luc Besson
REPARTO: Guy Pearce, Maggie Grace, Peter Stormare, Tom Hollander, Joseph Gilgun
PRODUCTORA: Europa Corp. / EuropaCorp
GÉNERO: Ciencia ficción. Thriller | Thriller futurista. Drama carcelario






La MS1 es una prisión experimental en el espacio, que orbita a 50 millas de la Tierra, donde los 500 criminales más peligrosos del planeta se encuentran retenidos en un estado de “letargo” inducido. A la cabeza de una misión humanitaria, la hija del presidente de los Estados Unidos, Emilie Warnock (Maggie Grace) llega a bordo de la prisión justo antes del estallido de un motín. Emilie y los trabajadores de la MS1 son tomados como rehenes por los violentos internos. El presidente Warnock decide enviar al agente Snow (Guy Pierce) a la MS1 con la única misión de salvar a Emilie a toda costa. Snow es un convicto encerrado por conspiración y espionaje contra los Estados Unidos.
























La pelicula NO tiene ninguna marca... solo coloque mi nombre de usuario en las capturas






Código:
General
Complete name                            : Lockout (2012) UNRATED 1080p BDRip Dual Latino-Ingles [Subt. Esp].mkv
Format                                   : Matroska
Format version                           : Version 4 / Version 2
File size                                : 7.41 GiB
Duration                                 : 1h 35mn
Overall bit rate                         : 11.1 Mbps
Movie name                               : www.club-hd.com --> Lockout (2012) UNRATED BDRip 1080p Dual Latino-Ingles [Subt. Esp-Ing]
Encoded date                             : UTC 2015-03-03 01:31:21
Writing application                      : mkvmerge v7.3.0 ('Nouages') 64bit built on Oct 22 2014 18:53:34
Writing library                          : libebml v1.3.0 + libmatroska v1.4.1

Video
ID                                       : 1
Format                                   : AVC
Format/Info                              : Advanced Video Codec
Format profile                           : High@L4.1
Format settings, CABAC                   : Yes
Format settings, ReFrames                : 5 frames
Codec ID                                 : V_MPEG4/ISO/AVC
Duration                                 : 1h 35mn
Bit rate                                 : 8 345 Kbps
Width                                    : 1 920 pixels
Height                                   : 808 pixels
Display aspect ratio                     : 2.40:1
Frame rate mode                          : Constant
Frame rate                               : 23.976 fps
Color space                              : YUV
Chroma subsampling                       : 4:2:0
Bit depth                                : 8 bits
Scan type                                : Progressive
Bits/(Pixel*Frame)                       : 0.224
Stream size                              : 5.41 GiB (73%)
Title                                    : Lockout (2012) UNRATED BDRip 1080p Dual Latino-Ingles [Subt. Esp-Ing]
Writing library                          : x264 core 125 r2200 999b753
Language                                 : English
Default                                  : Yes
Forced                                   : No

Audio #1
ID                                       : 2
Format                                   : AC-3
Format/Info                              : Audio Coding 3
Mode extension                           : CM (complete main)
Format settings, Endianness              : Big
Codec ID                                 : A_AC3
Duration                                 : 1h 35mn
Bit rate mode                            : Constant
Bit rate                                 : 640 Kbps
Channel(s)                               : 6 channels
Channel positions                        : Front: L C R, Side: L R, LFE
Sampling rate                            : 48.0 KHz
Bit depth                                : 16 bits
Compression mode                         : Lossy
Stream size                              : 436 MiB (6%)
Title                                    : Lockout (2012) UNRATED - Español Latino AC3 5.1 - 640 Kbps
Language                                 : Spanish
Default                                  : Yes
Forced                                   : No

Audio #2
ID                                       : 3
Format                                   : AC-3
Format/Info                              : Audio Coding 3
Mode extension                           : CM (complete main)
Format settings, Endianness              : Big
Codec ID                                 : A_AC3
Duration                                 : 1h 35mn
Bit rate mode                            : Constant
Bit rate                                 : 640 Kbps
Channel(s)                               : 6 channels
Channel positions                        : Front: L C R, Side: L R, LFE
Sampling rate                            : 48.0 KHz
Bit depth                                : 16 bits
Compression mode                         : Lossy
Stream size                              : 436 MiB (6%)
Title                                    : Lockout (2012) UNRATED - Inglés AC3 5.1 - 640 Kbps
Language                                 : English
Default                                  : No
Forced                                   : No

Audio #3
ID                                       : 4
Format                                   : DTS
Format/Info                              : Digital Theater Systems
Mode                                     : 16
Format settings, Endianness              : Big
Codec ID                                 : A_DTS
Duration                                 : 1h 35mn
Bit rate mode                            : Constant
Bit rate                                 : 1 509 Kbps
Channel(s)                               : 6 channels
Channel positions                        : Front: L C R, Side: L R, LFE
Sampling rate                            : 48.0 KHz
Bit depth                                : 24 bits
Compression mode                         : Lossy
Delay relative to video                  : 11ms
Stream size                              : 1.00 GiB (14%)
Title                                    : Lockout (2012) UNRATED - Inglés DTS 5.1 - 1509 Kbps
Language                                 : English
Default                                  : No
Forced                                   : No

Text
ID                                       : 5
Format                                   : UTF-8
Codec ID                                 : S_TEXT/UTF8
Codec ID/Info                            : UTF-8 Plain Text
Title                                    : Lockout (2012) UNRATED - Subtítulos Español
Language                                 : Spanish
Default                                  : No
Forced                                   : No






Código:
[CENTER][SIZE=5]
www.club-hd.com[/SIZE][/CENTER]










Enlaces de Mega y Fireload solo disponibles para Miembros VIP

Compra tu Membresía VIP y apoya a Club-HD!

ATENCIÓN! Tenemos TODO el material de Club-HD disponible por Mega y Fireload, enlaces 100% activos y online hasta la fecha

Llévate tus cuentas Mega PRO II gratis con tu membresía VIP!
Todos los posts vivos con links de Mega y Fireload.
Todo el material de Club-HD desbloqueado y sin publicidad.

Click Aquí para más información.




Enlaces de Mega y Fireload solo disponibles para Miembros VIP

Compra tu Membresía VIP y apoya a Club-HD!

ATENCIÓN! Tenemos TODO el material de Club-HD disponible por Mega y Fireload, enlaces 100% activos y online hasta la fecha

Llévate tus cuentas Mega PRO II gratis con tu membresía VIP!
Todos los posts vivos con links de Mega y Fireload.
Todo el material de Club-HD desbloqueado y sin publicidad.

Click Aquí para más información.


Para ver este contenido oculto, debes dar click en una de las siguientes reacciones : Like Like, Love Love, Haha Haha, Wow Wow, Sad Sad, Angry Angry

 
Última edición:

freaked

Active member
Registro
27 Ago 2012
Mensajes
677
Reacciones
70
Puntos
28

Reputation:

:sprloc: esta es excelente ya la descargue del blog y es muy buena
 

Usuarios Que Están Viendo Este Tema (Total: 1, Miembros: 0, Invitados: 1)

Arriba