Lone Wolf McQuade (1983) 720p BDRip Dual Latino-Inglés [Subt. Esp-Ing] (Acción. Western)

Max

Admin
Miembro del Staff
Administrador
Registro
8 Ago 2012
Mensajes
5.589
Reacciones
23.769
Puntos
113
Ubicación
Disco C

Reputation:





TÍTULO ORIGINAL: Lone Wolf McQuade
TÍTULO EN LATINO: McQuade, el lobo solitario
AÑO: 1983
DURACIÓN: 107 min.
PAÍS: Estados Unidos
DIRECTOR: Steve Carver
GUIÓN: B.J. Nelson, H. Kaye Dyal
MÚSICA: Francesco De Masi
FOTOGRAFÍA: Roger Shearman
REPARTO: Chuck Norris, David Carradine, Barbara Carrera, Leon Isaac Kennedy, Robert Beltran, William Sanderson, Aaron Norris, L.Q. Jones, Dana Kimmell, R.G. Armstrong, Jorge Cervera Jr.
PRODUCTORA: 1818 / Lone Wolf McQuade Associates / Topkick Productions / Orion Pictures Corporation
GÉNERO: Acción. Drama. Western

http://www.imdb.com/title/tt0085862/






Chuck Norris, comienza con ésta su andanza como Texas Ranger. Su trabajo se ve alterado cuando acude a solucionar el robo de un camión. Lo profesional da paso a lo personal, cuando Norris descubre que su hija ha sido secuestrada por aquellos que intentan perpetrar el robo.





















































Código:
General
Complete name                    : Lone Wolf McQuade (1983) 720p BDRip Dual Latino-Inglés [Subt. Esp-Ing].mkv
Format                           : Matroska
Format version                   : Version 2
File size                        : 4.32 GiB
Duration                         : 1h 47mn
Overall bit rate                 : 5 774 Kbps
Movie name                       : www.club-hd.com --> Lone Wolf McQuade (1983) 720p BDRip Dual Latino-Inglés [Subt. Esp-Ing]
Encoded date                     : UTC 2012-10-15 15:44:41
Writing application              : mkvmerge v5.8.0 ('No Sleep / Pillow') built on Sep  2 2012 15:37:04
Writing library                  : libebml v1.2.3 + libmatroska v1.3.0

Video
ID                               : 1
Format                           : AVC
Format/Info                      : Advanced Video Codec
Format profile                   : High@L4.1
Format settings, CABAC           : Yes
Format settings, ReFrames        : 5 frames
Codec ID                         : V_MPEG4/ISO/AVC
Duration                         : 1h 47mn
Bit rate                         : 5 069 Kbps
Width                            : 1 280 pixels
Height                           : 688 pixels
Display aspect ratio             : 1.860
Frame rate                       : 23.976 fps
Color space                      : YUV
Chroma subsampling               : 4:2:0
Bit depth                        : 8 bits
Scan type                        : Progressive
Bits/(Pixel*Frame)               : 0.240
Stream size                      : 3.71 GiB (86%)
Title                            : www.club-hd.com --> Lone Wolf McQuade (1983) 720p BDRip Dual Latino-Inglés [Subt. Esp-Ing]
Writing library                  : x264 core 125 r2200 999b753
Encoding settings                : cabac=1 / ref=5 / deblock=1:0:0 / analyse=0x3:0x133 / me=umh / subme=8 / psy=1 / psy_rd=1.00:0.00 / mixed_ref=1 / me_range=16 / chroma_me=1 / trellis=1 / 8x8dct=1 / cqm=0 / deadzone=21,11 / fast_pskip=0 / chroma_qp_offset=-2 / threads=18 / lookahead_threads=3 / sliced_threads=0 / nr=0 / decimate=1 / interlaced=0 / bluray_compat=0 / constrained_intra=0 / bframes=3 / b_pyramid=2 / b_adapt=1 / b_bias=0 / direct=1 / weightb=1 / open_gop=0 / weightp=2 / keyint=250 / keyint_min=23 / scenecut=40 / intra_refresh=0 / rc_lookahead=40 / rc=2pass / mbtree=1 / bitrate=5069 / ratetol=1.0 / qcomp=0.60 / qpmin=0 / qpmax=69 / qpstep=4 / cplxblur=20.0 / qblur=0.5 / ip_ratio=1.40 / aq=1:1.00
Language                         : English
Default                          : Yes
Forced                           : No

Audio #1
ID                               : 2
Format                           : AC-3
Format/Info                      : Audio Coding 3
Mode extension                   : CM (complete main)
Codec ID                         : A_AC3
Duration                         : 1h 47mn
Bit rate mode                    : Constant
Bit rate                         : 256 Kbps
Channel(s)                       : 2 channels
Channel positions                : Front: L R
Sampling rate                    : 48.0 KHz
Bit depth                        : 16 bits
Compression mode                 : Lossy
Stream size                      : 196 MiB (4%)
Title                            : Español Latino AC3 2.0
Language                         : Spanish
Default                          : Yes
Forced                           : No

Audio #2
ID                               : 3
Format                           : AC-3
Format/Info                      : Audio Coding 3
Mode extension                   : CM (complete main)
Codec ID                         : A_AC3
Duration                         : 1h 47mn
Bit rate mode                    : Constant
Bit rate                         : 448 Kbps
Channel(s)                       : 1 channel
Channel positions                : Front: C
Sampling rate                    : 48.0 KHz
Bit depth                        : 16 bits
Compression mode                 : Lossy
Stream size                      : 343 MiB (8%)
Title                            : Inglés AC3 1.0
Language                         : English
Default                          : No
Forced                           : No

Text #1
ID                               : 4
Format                           : UTF-8
Codec ID                         : S_TEXT/UTF8
Codec ID/Info                    : UTF-8 Plain Text
Title                            : Subtítulos Español
Language                         : Spanish
Default                          : No
Forced                           : No

Text #2
ID                               : 5
Format                           : UTF-8
Codec ID                         : S_TEXT/UTF8
Codec ID/Info                    : UTF-8 Plain Text
Title                            : Subtítulos Inglés
Language                         : English
Default                          : No
Forced                           : No




Extra Especial >> Lone Wolf McQuade - Original Soundtrack (1995)

DESCARGAR: Lone Wolf McQuade - Original Soundtrack desde Uploaded
DESCARGAR: Lone Wolf McQuade - Original Soundtrack desde Letitbit




IMPORTANTE!

Si van a ver esta película en un Lcd o Led, y notan que el audio en Español Latino se escucha mal, desactiven los efectos especiales de sus TVs. A mi me pasó ésto y desactivé los efectos de audio "Volumen Automatico" y "Voz Clara II", y como por arte de magia el maldito audio se normalizó! :cnfus:

Aclaro esto porque recuerdo que algunos usuarios ya habian tenido este inconveniente, que por lo visto todo viene por el lado de los aparatos, y lo acabo de confirmar.

Ahora si la van a ver en sus PCs no habrá ningún problema.





<< Aporte exclusivo de Club-HD! >>










Enlaces de Mega y Fireload solo disponibles para Miembros VIP

Compra tu Membresía VIP y apoya a Club-HD!

ATENCIÓN! Tenemos TODO el material de Club-HD disponible por Mega y Fireload, enlaces 100% activos y online hasta la fecha

Llévate tus cuentas Mega PRO II gratis con tu membresía VIP!
Todos los posts vivos con links de Mega y Fireload.
Todo el material de Club-HD desbloqueado y sin publicidad.

Click Aquí para más información.



Enlaces de Mega y Fireload solo disponibles para Miembros VIP

Compra tu Membresía VIP y apoya a Club-HD!

ATENCIÓN! Tenemos TODO el material de Club-HD disponible por Mega y Fireload, enlaces 100% activos y online hasta la fecha

Llévate tus cuentas Mega PRO II gratis con tu membresía VIP!
Todos los posts vivos con links de Mega y Fireload.
Todo el material de Club-HD desbloqueado y sin publicidad.

Click Aquí para más información.



Para ver este contenido oculto, debes dar click en una de las siguientes reacciones : Like Like, Love Love, Haha Haha, Wow Wow, Sad Sad, Angry Angry
 
Última edición por un moderador:

Max

Admin
Miembro del Staff
Administrador
Registro
8 Ago 2012
Mensajes
5.589
Reacciones
23.769
Puntos
113
Ubicación
Disco C

Reputation:



:dplgar:


:llrnd2:


 
Última edición:

Omar Herrera

Well-known member
Miembro del Staff
Súper Moderador
Registro
27 Ago 2012
Mensajes
1.234
Reacciones
325
Puntos
83
Edad
32
Ubicación
Managua

Reputation:

Bravo Max :aplausos:
Ahora si me la llevo
Desc_g_
Gracias mi estimado :dplgar:
 

Rob Stark

New member
Registro
28 Ago 2012
Mensajes
243
Reacciones
29
Puntos
0
Edad
31

Reputation:

Al rato me la descargo muchas gracias por compartir :dplgar:
 

Nosferatu

Well-known member
Súper Moderador
Registro
31 Ago 2012
Mensajes
2.275
Reacciones
1.362
Puntos
113
Edad
44
Ubicación
Welcome to Hell!!

Reputation:

Muy muy buen aporte una versión menos pesada,jejeje :aplausos:

GRACIAS MISTER MAX! :aplausos::dplgar:
 

JORJEMARADONA

New member
Registro
31 Ago 2012
Mensajes
31
Reacciones
0
Puntos
0
Edad
31

Reputation:

MUY BUENO TODO LO TUYO
ME PODES DECIR CUANDO SALE The Dark Knight Rises , The Amazing Spider-Man , Total Recall , ted y
The Bourne Legacy
 

Max

Admin
Miembro del Staff
Administrador
Registro
8 Ago 2012
Mensajes
5.589
Reacciones
23.769
Puntos
113
Ubicación
Disco C

Reputation:

Muy pronto mi querido JORJEMARADONA. ;)
 

Usuarios Que Están Viendo Este Tema (Total: 1, Miembros: 0, Invitados: 1)

Arriba