Los ilusionautas (2012) 720p BDRip Audio Latino (Animación)

Maestro Revolver

Well-known member
Miembro del Staff
Administrador
Registro
9 Ago 2012
Mensajes
3.567








TÍTULO ORIGINAL: Los ilusionautas
AÑO: 2012
PAÍS: Perú
DIRECTOR: Eduardo Schuldt
GUIÓN: Kathy Borland, Abraham Vurnbrand
REPARTO: Animation
PRODUCTORA: Aronnax Animation Studios
GÉNERO: Animación. Fantástico. Aventuras | 3-D
: http://www.imdb.com/title/tt1893371/






Cuando un experimento secreto sale mal y las historias de un escritor de ciencia ficción se mezclan, el gobierno francés tiene que convocar a un grupo de 4 niños acompañados de un perrito, para ingresar a la imaginación del escritor y resolver el desastre literario. Una película llena de aventuras, “con poca ciencia y mucha ficción”.
























La pelicula NO tiene ninguna marca... solo colocamos el nombre de esta web en las capturas






Código:
General
Format                                   : Matroska
Format version                           : Version 2
File size                                : 2.25 GiB
Duration                                 : 1h 21mn
Overall bit rate                         : 3 938 Kbps
Movie name                               : www.club-hd.com
Encoded date                             : UTC 2013-07-02 23:16:23
Writing application                      : mkvmerge v5.7.0 ('The Whirlwind') built on Jul  8 2012 20:08:51
Writing library                          : libebml v1.2.3 + libmatroska v1.3.0

Video
ID                                       : 1
Format                                   : AVC
Format/Info                              : Advanced Video Codec
Format profile                           : High@L4.1
Format settings, CABAC                   : Yes
Format settings, ReFrames                : 9 frames
Codec ID                                 : V_MPEG4/ISO/AVC
Duration                                 : 1h 21mn
Bit rate                                 : 3 500 Kbps
Width                                    : 1 280 pixels
Height                                   : 720 pixels
Display aspect ratio                     : 16:9
Frame rate mode                          : Constant
Frame rate                               : 23.976 fps
Color space                              : YUV
Chroma subsampling                       : 4:2:0
Bit depth                                : 8 bits
Scan type                                : Progressive
Bits/(Pixel*Frame)                       : 0.158
Stream size                              : 1.95 GiB (87%)
Writing library                          : x264 core 125 r2200 999b753
Language                                 : Spanish
Default                                  : Yes
Forced                                   : No
Matrix coefficients                      : BT.709

Audio
ID                                       : 2
Format                                   : AC-3
Format/Info                              : Audio Coding 3
Mode extension                           : CM (complete main)
Format settings, Endianness              : Big
Codec ID                                 : A_AC3
Duration                                 : 1h 21mn
Bit rate mode                            : Constant
Bit rate                                 : 448 Kbps
Channel(s)                               : 6 channels
Channel positions                        : Front: L C R, Side: L R, LFE
Sampling rate                            : 48.0 KHz
Bit depth                                : 16 bits
Compression mode                         : Lossy
Stream size                              : 262 MiB (11%)
Language                                 : Spanish
Default                                  : Yes
Forced                                   : No

Menu
00:00:00.000                             : en:00:00:00.000
00:08:59.830                             : en:00:08:59.830
00:15:53.285                             : en:00:15:53.285
00:23:55.642                             : en:00:23:55.642
00:32:15.558                             : en:00:32:15.558
00:39:46.842                             : en:00:39:46.842
00:46:47.179                             : en:00:46:47.179
00:56:04.069                             : en:00:56:04.069
01:04:48.301                             : en:01:04:48.301
01:11:13.310                             : en:01:11:13.310
01:18:55.439                             : en:01:18:55.439








Enlaces de Mega y Google Drive solo disponibles para Miembros VIP

Compra tu Membresía VIP y apoya a Club-HD!

ATENCIÓN! Tenemos TODO el material de Club-HD disponible por Mega y Google Drive, enlaces 100% activos y online hasta la fecha

Llévate tus cuentas Mega PRO III gratis con tu membresía VIP!
Todos los posts vivos con links de Mega y Google Drive.
Todo el material de Club-HD desbloqueado y sin publicidad.

Click Aquí para más información.


Para ver este contenido oculto, debes dar click en una de las siguientes reacciones : Like Like, Love Love, Haha Haha, Wow Wow, Sad Sad, Angry Angry



 
Última edición por un moderador:

Usuarios Que Están Viendo Este Tema (Total: 1, Miembros: 0, Invitados: 1)

Quién Leyó Este Tema (Total Miembros: 3)

Arriba