Los últimos días (2013) 720p BDRip Audio Español (Ciencia ficción. Thriller)

Maestro Revolver

Well-known member
Miembro del Staff
Administrador
Registro
9 Ago 2012
Mensajes
3.567








TÍTULO ORIGINAL: Los últimos días
AÑO: 2013
DURACIÓN: 100 min.
PAÍS: España
DIRECTOR: Àlex Pastor, David Pastor
GUIÓN: Àlex Pastor, David Pastor
REPARTO: Quim Gutiérrez, José Coronado, Marta Etura, Leticia Dolera, Lluís Villanueva, Mikel Iglesias, Ivan Massagué, Pep Sais, Momo Ballesteros
PRODUCTORA: Morena Films / Rebelión Terrestre / Antena 3 Films / Les Films du Lendemain
GÉNERO: Ciencia ficción. Thriller | Futuro postapocalíptico
: http://www.imdb.com/title/tt1935914/






Año 2013. Una misteriosa enfermedad se extiende por todo el planeta. El pánico domina a la población, que se niega a salir a la calle, pues eso provoca la muerte de manera fulminante. Toda la población mundial se queda encerrada en sus casas. Mientras la civilización se desmorona, Marc, sin poder salir a la calle, emprende una misión casi imposible: la búsqueda de Julia, su novia desaparecida.
























La pelicula NO tiene ninguna marca... solo colocamos el nombre de esta web en las capturas






Código:
General
Format                                   : Matroska
Format version                           : Version 2
File size                                : 3.16 GiB
Duration                                 : 1h 42mn
Overall bit rate                         : 4 410 Kbps
Movie name                               : www.club-hd.com
Encoded date                             : UTC 2013-07-28 17:06:27
Writing application                      : mkvmerge v5.7.0 ('The Whirlwind') built on Jul  8 2012 20:08:51
Writing library                          : libebml v1.2.3 + libmatroska v1.3.0

Video
ID                                       : 1
Format                                   : AVC
Format/Info                              : Advanced Video Codec
Format profile                           : High@L4.1
Format settings, CABAC                   : Yes
Format settings, ReFrames                : 12 frames
Codec ID                                 : V_MPEG4/ISO/AVC
Duration                                 : 1h 42mn
Bit rate                                 : 3 874 Kbps
Width                                    : 1 280 pixels
Height                                   : 538 pixels
Display aspect ratio                     : 2.40:1
Frame rate mode                          : Constant
Frame rate                               : 24.000 fps
Color space                              : YUV
Chroma subsampling                       : 4:2:0
Bit depth                                : 8 bits
Scan type                                : Progressive
Bits/(Pixel*Frame)                       : 0.234
Stream size                              : 2.78 GiB (88%)
Language                                 : Spanish
Default                                  : Yes
Forced                                   : No

Audio
ID                                       : 2
Format                                   : AC-3
Format/Info                              : Audio Coding 3
Mode extension                           : CM (complete main)
Format settings, Endianness              : Big
Codec ID                                 : A_AC3
Duration                                 : 1h 42mn
Bit rate mode                            : Constant
Bit rate                                 : 448 Kbps
Channel(s)                               : 6 channels
Channel positions                        : Front: L C R, Side: L R, LFE
Sampling rate                            : 48.0 KHz
Bit depth                                : 16 bits
Compression mode                         : Lossy
Stream size                              : 329 MiB (10%)
Language                                 : Spanish
Default                                  : Yes
Forced                                   : No

Menu
00:00:00.000                             : en:00:00:00.000
00:11:55.542                             : en:00:11:55.542
00:24:51.500                             : en:00:24:51.500
00:36:01.667                             : en:00:36:01.667
00:47:24.875                             : en:00:47:24.875
01:01:10.167                             : en:01:01:10.167
01:12:39.792                             : en:01:12:39.792
01:27:23.250                             : en:01:27:23.250








Enlaces de Mega y Google Drive solo disponibles para Miembros VIP

Compra tu Membresía VIP y apoya a Club-HD!

ATENCIÓN! Tenemos TODO el material de Club-HD disponible por Mega y Google Drive, enlaces 100% activos y online hasta la fecha

Llévate tus cuentas Mega PRO III gratis con tu membresía VIP!
Todos los posts vivos con links de Mega y Google Drive.
Todo el material de Club-HD desbloqueado y sin publicidad.

Click Aquí para más información.


Para ver este contenido oculto, debes dar click en una de las siguientes reacciones : Like Like, Love Love, Haha Haha, Wow Wow, Sad Sad, Angry Angry



 
Última edición por un moderador:

Usuarios Que Están Viendo Este Tema (Total: 1, Miembros: 0, Invitados: 1)

Quién Leyó Este Tema (Total Miembros: 2)

Arriba